  0
SECTION
  2
HEADER
  9
$ACADVER
  1
AC1012
  9
$DWGCODEPAGE
  3
dos932
  9
$INSBASE
 10
0.0
 20
0.0
 30
0.0
  9
$EXTMIN
 10
-16.560661
 20
-17.703824
 30
0.0
  9
$EXTMAX
 10
20.375355
 20
15.995917
 30
0.0
  9
$LIMMIN
 10
-29.7
 20
-21.0
  9
$LIMMAX
 10
29.7
 20
21.0
  9
$ORTHOMODE
 70
     0
  9
$REGENMODE
 70
     1
  9
$FILLMODE
 70
     1
  9
$QTEXTMODE
 70
     0
  9
$MIRRTEXT
 70
     1
  9
$DRAGMODE
 70
     2
  9
$LTSCALE
 40
1.0
  9
$OSMODE
 70
     0
  9
$ATTMODE
 70
     1
  9
$TEXTSIZE
 40
4.16718
  9
$TRACEWID
 40
0.05
  9
$TEXTSTYLE
  7
MX_NOTE_STANDARD
  9
$CLAYER
  8
LY_1
  9
$CELTYPE
  6
CONTINUOUS
  9
$CECOLOR
 62
   256
  9
$CELTSCALE
 40
1.0
  9
$DELOBJ
 70
     1
  9
$DISPSILH
 70
     0
  9
$DIMSCALE
 40
1.0
  9
$DIMASZ
 40
2.5
  9
$DIMEXO
 40
0.0
  9
$DIMDLI
 40
3.75
  9
$DIMRND
 40
0.0
  9
$DIMDLE
 40
0.0
  9
$DIMEXE
 40
1.2
  9
$DIMTP
 40
0.0
  9
$DIMTM
 40
0.0
  9
$DIMTXT
 40
2.54
  9
$DIMCEN
 40
2.5
  9
$DIMTSZ
 40
0.0
  9
$DIMTOL
 70
     0
  9
$DIMLIM
 70
     0
  9
$DIMTIH
 70
     0
  9
$DIMTOH
 70
     0
  9
$DIMSE1
 70
     0
  9
$DIMSE2
 70
     0
  9
$DIMTAD
 70
     1
  9
$DIMZIN
 70
     8
  9
$DIMBLK
  1

  9
$DIMASO
 70
     1
  9
$DIMSHO
 70
     1
  9
$DIMPOST
  1

  9
$DIMAPOST
  1

  9
$DIMALT
 70
     0
  9
$DIMALTD
 70
     4
  9
$DIMALTF
 40
0.03937
  9
$DIMLFAC
 40
1.0
  9
$DIMTOFL
 70
     1
  9
$DIMTVP
 40
0.0
  9
$DIMTIX
 70
     0
  9
$DIMSOXD
 70
     0
  9
$DIMSAH
 70
     1
  9
$DIMBLK1
  1
_OPEN30
  9
$DIMBLK2
  1
_OPEN30
  9
$DIMSTYLE
  2
MXDIMSTYLE
  9
$DIMCLRD
 70
     0
  9
$DIMCLRE
 70
     0
  9
$DIMCLRT
 70
     0
  9
$DIMTFAC
 40
1.0
  9
$DIMGAP
 40
0.2
  9
$DIMJUST
 70
     0
  9
$DIMSD1
 70
     0
  9
$DIMSD2
 70
     0
  9
$DIMTOLJ
 70
     0
  9
$DIMTZIN
 70
     0
  9
$DIMALTZ
 70
     0
  9
$DIMALTTZ
 70
     0
  9
$DIMFIT
 70
     3
  9
$DIMUPT
 70
     0
  9
$DIMUNIT
 70
     2
  9
$DIMDEC
 70
     2
  9
$DIMTDEC
 70
     2
  9
$DIMALTU
 70
     2
  9
$DIMALTTD
 70
     4
  9
$DIMTXSTY
  7
MX_NOTE_STANDARD
  9
$DIMAUNIT
 70
     0
  9
$LUNITS
 70
     2
  9
$LUPREC
 70
     4
  9
$SKETCHINC
 40
0.1
  9
$FILLETRAD
 40
0.0
  9
$AUNITS
 70
     0
  9
$AUPREC
 70
     0
  9
$MENU
  1
acad
  9
$ELEVATION
 40
0.0
  9
$PELEVATION
 40
0.0
  9
$THICKNESS
 40
0.0
  9
$LIMCHECK
 70
     0
  9
$BLIPMODE
 70
     1
  9
$CHAMFERA
 40
0.0
  9
$CHAMFERB
 40
0.0
  9
$CHAMFERC
 40
0.0
  9
$CHAMFERD
 40
0.0
  9
$SKPOLY
 70
     0
  9
$TDCREATE
 40
2458639.672557870
  9
$TDUPDATE
 40
2458639.672557870
  9
$TDINDWG
 40
0.0000000000
  9
$TDUSRTIMER
 40
0.0000000000
  9
$USRTIMER
 70
     1
  9
$ANGBASE
 50
0.0
  9
$ANGDIR
 70
     0
  9
$PDMODE
 70
     0
  9
$PDSIZE
 40
0.0
  9
$PLINEWID
 40
0.0
  9
$COORDS
 70
     1
  9
$SPLFRAME
 70
     0
  9
$SPLINETYPE
 70
     6
  9
$SPLINESEGS
 70
     8
  9
$ATTDIA
 70
     0
  9
$ATTREQ
 70
     1
  9
$HANDLING
 70
     1
  9
$HANDSEED
  5
115
  9
$SURFTAB1
 70
     6
  9
$SURFTAB2
 70
     6
  9
$SURFTYPE
 70
     6
  9
$SURFU
 70
     6
  9
$SURFV
 70
     6
  9
$UCSNAME
  2

  9
$UCSORG
 10
0.0
 20
0.0
 30
0.0
  9
$UCSXDIR
 10
1.0
 20
0.0
 30
0.0
  9
$UCSYDIR
 10
0.0
 20
1.0
 30
0.0
  9
$PUCSNAME
  2

  9
$PUCSORG
 10
0.0
 20
0.0
 30
0.0
  9
$PUCSXDIR
 10
1.0
 20
0.0
 30
0.0
  9
$PUCSYDIR
 10
0.0
 20
1.0
 30
0.0
  9
$USERI1
 70
     0
  9
$USERI2
 70
     0
  9
$USERI3
 70
     0
  9
$USERI4
 70
     0
  9
$USERI5
 70
     0
  9
$USERR1
 40
0.0
  9
$USERR2
 40
0.0
  9
$USERR3
 40
0.0
  9
$USERR4
 40
0.0
  9
$USERR5
 40
0.0
  9
$WORLDVIEW
 70
     1
  9
$SHADEDGE
 70
     3
  9
$SHADEDIF
 70
    70
  9
$TILEMODE
 70
     1
  9
$MAXACTVP
 70
    16
  9
$PINSBASE
 10
0.0
 20
0.0
 30
0.0
  9
$PLIMCHECK
 70
     0
  9
$PEXTMIN
 10
1.000000E+20
 20
1.000000E+20
 30
1.000000E+20
  9
$PEXTMAX
 10
-1.000000E+20
 20
-1.000000E+20
 30
-1.000000E+20
  9
$PLIMMIN
 10
0.0
 20
0.0
  9
$PLIMMAX
 10
12.0
 20
9.0
  9
$UNITMODE
 70
     0
  9
$VISRETAIN
 70
     0
  9
$PLINEGEN
 70
     1
  9
$PSLTSCALE
 70
     0
  9
$TREEDEPTH
 70
  3020
  9
$PICKSTYLE
 70
     1
  9
$CMLSTYLE
  2
Standard
  9
$CMLJUST
 70
     0
  9
$CMLSCALE
 40
1.0
  9
$SAVEIMAGES
 70
     0
  0
ENDSEC
  0
SECTION
  2
CLASSES
  0
CLASS
  1
LWPOLYLINE
  2
AcDbPolyline
  3
"AutoCAD"
 90
    32768
280
     0
281
     1
  0
CLASS
  1
IMAGE
  2
AcDbRasterImage
  3
ISM
 90
    32895
280
     0
281
     1
  0
CLASS
  1
OLE2FRAME
  2
AcDbOle2Frame
  3
""
 90
    32768
280
     0
281
     1
  0
CLASS
  1
HATCH
  2
AcDbHatch
  3
"ACAD_SEDONA"
 90
    32768
280
     0
281
     1
  0
CLASS
  1
DICTIONARYVAR
  2
AcDbDictionaryVar
  3
"AutoCAD"
 90
    32768
280
     0
281
     0
  0
CLASS
  1
RASTERVARIABLES
  2
AcDbRasterVariables
  3
ISM
 90
    32768
280
     0
281
     0
  0
CLASS
  1
IMAGEDEF
  2
AcDbRasterImageDef
  3
ISM
 90
    32768
280
     0
281
     0
  0
CLASS
  1
IMAGEDEF_REACTOR
  2
AcDbRasterImageDefReactor
  3
ISM
 90
    32769
280
     0
281
     0
  0
CLASS
  1
IDBUFFER
  2
AcDbIdBuffer
  3
"Acad"
 90
    32768
280
     0
281
     0
  0
CLASS
  1
SPATIAL_FILTER
  2
AcDbSpatialFilter
  3
"Acad"
 90
    32768
280
     0
281
     0
  0
CLASS
  1
XRECORD
  2
AcDbXrecord
  3
"<Built In>"
 90
    32768
280
     0
281
     0
  0
CLASS
  1
SORTENTSTABLE
  2
AcDbSortentsTable
  3
"AutoCAD"
 90
    32768
280
     0
281
     0
  0
CLASS
  1
LAYER_INDEX
  2
AcDbLayerIndex
  3
"Acad"
 90
    32768
280
     0
281
     0
  0
CLASS
  1
SPATIAL_INDEX
  2
AcDbSpatialIndex
  3
"Acad"
 90
    32768
280
     0
281
     0
  0
CLASS
  1
OBJECT_PTR
  2
CAseDLPNTableRecord
  3
"ASE-LPNTableRecord"
 90
    32769
280
     0
281
     0
  0
CLASS
  1
LAYOUT
  2
AcDbLayout
  3
"AutoCAD 2000"
 90
    32768
280
     0
281
     0
  0
CLASS
  1
PLOTSETTINGS
  2
AcDbPlotSettings
  3
"AutoCAD 2000"
 90
    32768
280
     0
281
     0
  0
CLASS
  1
ACDBDICTIONARYWDFLT
  2
AcDbDictionaryWithDefault
  3
"AutoCAD 2000"
 90
    32768
280
     0
281
     0
  0
CLASS
  1
ACDBPLACEHOLDER
  2
AcDbPlaceHolder
  3
"AutoCAD 2000"
 90
    32768
280
     0
281
     0
  0
ENDSEC
  0
SECTION
  2
TABLES
  0
TABLE
  2
VPORT
  5
7
100
AcDbSymbolTable
 70
     1
  0
VPORT
  5
15
100
AcDbSymbolTableRecord
100
AcDbViewportTableRecord
  2
*ACTIVE
 70
     0
 10
0.0
 20
0.0
 11
1.0
 21
1.0
 12
0.0
 22
0.0
 13
0.0
 23
0.0
 14
1.0
 24
1.0
 15
0.0
 25
0.0
 16
0.0
 26
0.0
 36
1.0
 17
0.0
 27
0.0
 37
0.0
 40
42.42
 41
1.732051
 42
50.0
 43
0.0
 44
0.0
 50
0.0
 51
0.0
 71
     0
 72
   100
 73
     1
 74
     1
 75
     0
 76
     0
 77
     0
 78
     0
  0
ENDTAB
  0
TABLE
  2
LTYPE
  5
4
100
AcDbSymbolTable
 70
     4
  0
LTYPE
  5
11
100
AcDbSymbolTableRecord
100
AcDbLinetypeTableRecord
  2
BYBLOCK
 70
    64
  3

 72
    65
 73
     0
 40
0.0
  0
LTYPE
  5
12
100
AcDbSymbolTableRecord
100
AcDbLinetypeTableRecord
  2
BYLAYER
 70
    64
  3

 72
    65
 73
     0
 40
0.0
  0
LTYPE
  5
13
100
AcDbSymbolTableRecord
100
AcDbLinetypeTableRecord
  2
CONTINUOUS
 70
    64
  3
Solid line
 72
    65
 73
     0
 40
0.0
  0
LTYPE
  5
FC
100
AcDbSymbolTableRecord
100
AcDbLinetypeTableRecord
  2
CENTER
 70
    64
  3
Center ____ _ ____ _ ____ _ ____ _ ____ _ ____
 72
    65
 73
     4
 40
50.8
 49
31.75
 74
     0
 49
-6.35
 74
     0
 49
6.35
 74
     0
 49
-6.35
 74
     0
  0
ENDTAB
  0
TABLE
  2
LAYER
  5
2
100
AcDbSymbolTable
 70
     3
  0
LAYER
  5
14
100
AcDbSymbolTableRecord
100
AcDbLayerTableRecord
  2
0
 70
     0
 62
     7
  6
CONTINUOUS
  0
LAYER
  5
1D
100
AcDbSymbolTableRecord
100
AcDbLayerTableRecord
  2
LY_1
 70
     0
 62
     7
  6
CONTINUOUS
  0
LAYER
  5
1E
100
AcDbSymbolTableRecord
100
AcDbLayerTableRecord
  2
DEFPOINTS
 70
     0
 62
     7
  6
CONTINUOUS
  0
ENDTAB
  0
TABLE
  2
STYLE
  5
3
100
AcDbSymbolTable
 70
     4
  0
STYLE
  5
17
100
AcDbSymbolTableRecord
100
AcDbTextStyleTableRecord
  2
MX_NOTE_STANDARD
 70
     0
 40
0.0
 41
1.0
 50
0.0
 71
     0
 42
4.16718
  3
txt.shx
  4
extfont.shx
  0
STYLE
  5
3D
100
AcDbSymbolTableRecord
100
AcDbTextStyleTableRecord
  2
MX_DIMTXSTY_2
 70
     0
 40
0.0
 41
1.2
 50
0.0
 71
     0
 42
4.16718
  3
txt.shx
  4
extfont.shx
  0
STYLE
  5
4E
100
AcDbSymbolTableRecord
100
AcDbTextStyleTableRecord
  2
MX_DIMTXSTY_3
 70
     0
 40
0.0
 41
1.15
 50
0.0
 71
     0
 42
4.16718
  3
txt.shx
  4
extfont.shx
  0
STYLE
  5
C4
100
AcDbSymbolTableRecord
100
AcDbTextStyleTableRecord
  2
MX_DIMTXSTY_4
 70
     0
 40
0.0
 41
1.25
 50
0.0
 71
     0
 42
4.16718
  3
txt.shx
  4
extfont.shx
  0
ENDTAB
  0
TABLE
  2
VIEW
  5
5
100
AcDbSymbolTable
 70
     0
  0
ENDTAB
  0
TABLE
  2
UCS
  5
6
100
AcDbSymbolTable
 70
     0
  0
ENDTAB
  0
TABLE
  2
APPID
  5
8
100
AcDbSymbolTable
 70
     1
  0
APPID
  5
16
100
AcDbSymbolTableRecord
100
AcDbRegAppTableRecord
  2
ACAD
 70
     0
  0
ENDTAB
  0
TABLE
  2
DIMSTYLE
  5
9
100
AcDbSymbolTable
 70
     1
  0
DIMSTYLE
105
18
100
AcDbSymbolTableRecord
100
AcDbDimStyleTableRecord
  2
MXDIMSTYLE
 70
     0
  3

  4

  5

  6
_OPEN30
  7
_OPEN30
 40
1.0
 41
2.5
 42
0.0
 43
3.75
 44
1.2
 45
0.0
 46
0.0
 47
0.0
 48
0.0
 71
     0
 72
     0
 73
     0
 74
     0
 75
     0
 76
     0
 77
     1
 78
     8
140
2.54
141
2.5
142
0.0
143
0.03937
144
1.0
145
0.0
146
1.0
147
0.2
170
     0
171
     4
172
     1
173
     1
174
     0
175
     0
176
     0
177
     0
178
     0
270
     2
271
     2
272
     2
273
     2
274
     4
275
     0
280
     0
281
     0
282
     0
283
     0
284
     0
285
     0
286
     0
287
     3
288
     0
340
17
  0
ENDTAB
  0
TABLE
  2
BLOCK_RECORD
  5
1
100
AcDbSymbolTable
 70
    16
  0
BLOCK_RECORD
  5
A
100
AcDbSymbolTableRecord
100
AcDbBlockTableRecord
  2
*MODEL_SPACE
  0
BLOCK_RECORD
  5
B
100
AcDbSymbolTableRecord
100
AcDbBlockTableRecord
  2
*PAPER_SPACE
  0
BLOCK_RECORD
  5
1F
100
AcDbSymbolTableRecord
100
AcDbBlockTableRecord
  2
MS_1
  0
BLOCK_RECORD
  5
20
100
AcDbSymbolTableRecord
100
AcDbBlockTableRecord
  2
_OPEN30
  0
BLOCK_RECORD
  5
2D
100
AcDbSymbolTableRecord
100
AcDbBlockTableRecord
  2
*D2
  0
BLOCK_RECORD
  5
35
100
AcDbSymbolTableRecord
100
AcDbBlockTableRecord
  2
_OPEN
  0
BLOCK_RECORD
  5
44
100
AcDbSymbolTableRecord
100
AcDbBlockTableRecord
  2
*D4
  0
BLOCK_RECORD
  5
55
100
AcDbSymbolTableRecord
100
AcDbBlockTableRecord
  2
*D5
  0
BLOCK_RECORD
  5
5E
100
AcDbSymbolTableRecord
100
AcDbBlockTableRecord
  2
_DOT
  0
BLOCK_RECORD
  5
6A
100
AcDbSymbolTableRecord
100
AcDbBlockTableRecord
  2
*D7
  0
BLOCK_RECORD
  5
7A
100
AcDbSymbolTableRecord
100
AcDbBlockTableRecord
  2
*D8
  0
BLOCK_RECORD
  5
8A
100
AcDbSymbolTableRecord
100
AcDbBlockTableRecord
  2
*D9
  0
BLOCK_RECORD
  5
9A
100
AcDbSymbolTableRecord
100
AcDbBlockTableRecord
  2
*D10
  0
BLOCK_RECORD
  5
AA
100
AcDbSymbolTableRecord
100
AcDbBlockTableRecord
  2
*D11
  0
BLOCK_RECORD
  5
BA
100
AcDbSymbolTableRecord
100
AcDbBlockTableRecord
  2
*D12
  0
BLOCK_RECORD
  5
CB
100
AcDbSymbolTableRecord
100
AcDbBlockTableRecord
  2
*D13
  0
BLOCK_RECORD
  5
DB
100
AcDbSymbolTableRecord
100
AcDbBlockTableRecord
  2
*D14
  0
BLOCK_RECORD
  5
E8
100
AcDbSymbolTableRecord
100
AcDbBlockTableRecord
  2
*D15
  0
ENDTAB
  0
ENDSEC
  0
SECTION
  2
BLOCKS
  0
BLOCK
  5
D
100
AcDbEntity
  8
0
100
AcDbBlockBegin
  2
*MODEL_SPACE
 70
     0
 10
0.0
 20
0.0
 30
0.0
  3
*MODEL_SPACE
  1

  0
ENDBLK
  5
E
100
AcDbEntity
  8
0
100
AcDbBlockEnd
  0
BLOCK
  5
F
100
AcDbEntity
 67
     1
  8
0
100
AcDbBlockBegin
  2
*PAPER_SPACE
 70
     0
 10
0.0
 20
0.0
 30
0.0
  3
*PAPER_SPACE
  1

  0
ENDBLK
  5
10
100
AcDbEntity
 67
     1
  8
0
100
AcDbBlockEnd
  0
BLOCK
  5
26
100
AcDbEntity
  8
0
100
AcDbBlockBegin
  2
MS_1
 70
     0
 10
0.0
 20
0.0
 30
0.0
  3
MS_1
  1

  0
LINE
  5
27
100
AcDbEntity
  8
0
  6
CONTINUOUS
 62
    42
100
AcDbLine
 10
0.9
 20
-1.85
 30
0.0
 11
-0.9
 21
-1.85
 31
0.0
  0
LINE
  5
28
100
AcDbEntity
  8
0
  6
CONTINUOUS
 62
    42
100
AcDbLine
 10
0.9
 20
-1.85
 30
0.0
 11
0.9
 21
0.0
 31
0.0
  0
LINE
  5
29
100
AcDbEntity
  8
0
  6
CONTINUOUS
 62
    42
100
AcDbLine
 10
-0.9
 20
-1.85
 30
0.0
 11
-0.9
 21
0.0
 31
0.0
  0
POINT
  5
2A
100
AcDbEntity
  8
0
  6
CONTINUOUS
 62
    52
100
AcDbPoint
 10
0.0
 20
0.0
 30
0.0
  0
LINE
  5
2B
100
AcDbEntity
  8
0
  6
CONTINUOUS
 62
    42
100
AcDbLine
 10
0.9
 20
0.0
 30
0.0
 11
-0.9
 21
0.0
 31
0.0
  0
ENDBLK
  5
2C
100
AcDbEntity
  8
0
100
AcDbBlockEnd
  0
BLOCK
  5
21
100
AcDbEntity
  8
0
  6
ByBlock
 62
     0
100
AcDbBlockBegin
  2
_OPEN30
 70
     2
 10
0.0
 20
0.0
 30
0.0
  3
_OPEN30
  1

  0
LINE
  5
22
100
AcDbEntity
  8
0
  6
ByBlock
 62
     0
100
AcDbLine
 10
-1.0
 20
0.267949
 30
0.0
 11
0.0
 21
0.0
 31
0.0
  0
LINE
  5
23
100
AcDbEntity
  8
0
  6
ByBlock
 62
     0
100
AcDbLine
 10
0.0
 20
0.0
 30
0.0
 11
-1.0
 21
-0.267949
 31
0.0
  0
LINE
  5
24
100
AcDbEntity
  8
0
  6
ByBlock
 62
     0
100
AcDbLine
 10
0.0
 20
0.0
 30
0.0
 11
-1.0
 21
0.0
 31
0.0
  0
ENDBLK
  5
25
100
AcDbEntity
  8
0
  6
ByBlock
 62
     0
100
AcDbBlockEnd
  0
BLOCK
  5
2E
100
AcDbEntity
  8
0
  6
ByBlock
 62
     0
100
AcDbBlockBegin
  2
*D2
 70
     1
 10
0.0
 20
0.0
 30
0.0
  3
*D2
  1

  0
LINE
  5
2F
100
AcDbEntity
  8
0
  6
CONTINUOUS
 62
    51
100
AcDbLine
 10
19.875355
 20
2.15
 30
0.0
 11
19.875355
 21
-2.15
 31
0.0
  0
LINE
  5
30
100
AcDbEntity
  8
0
  6
CONTINUOUS
 62
    51
100
AcDbLine
 10
19.875355
 20
-2.15
 30
0.0
 11
19.875355
 21
-11.775539
 31
0.0
  0
LINE
  5
31
100
AcDbEntity
  8
0
  6
CONTINUOUS
 62
    51
100
AcDbLine
 10
11.000001
 20
2.15
 30
0.0
 11
20.375355
 21
2.15
 31
0.0
  0
LINE
  5
32
100
AcDbEntity
  8
0
  6
CONTINUOUS
 62
    51
100
AcDbLine
 10
11.000001
 20
-2.15
 30
0.0
 11
20.375355
 21
-2.15
 31
0.0
  0
LINE
  5
33
100
AcDbEntity
  8
0
  6
CONTINUOUS
 62
    51
100
AcDbLine
 10
19.875355
 20
2.15
 30
0.0
 11
19.875355
 21
3.42
 31
0.0
  0
LINE
  5
34
100
AcDbEntity
  8
0
  6
CONTINUOUS
 62
    51
100
AcDbLine
 10
19.875355
 20
-2.15
 30
0.0
 11
19.875355
 21
-3.42
 31
0.0
  0
INSERT
  5
3B
100
AcDbEntity
  8
0
  6
CONTINUOUS
 62
    51
100
AcDbBlockReference
  2
_OPEN
 10
19.875355
 20
2.15
 30
0.0
 41
0.45
 42
0.45
 43
0.45
 50
270.0
  0
INSERT
  5
3C
100
AcDbEntity
  8
0
  6
CONTINUOUS
 62
    51
100
AcDbBlockReference
  2
_OPEN
 10
19.875355
 20
-2.15
 30
0.0
 41
0.45
 42
0.45
 43
0.45
 50
90.0
  0
MTEXT
  5
3E
100
AcDbEntity
  8
0
  6
CONTINUOUS
 62
    51
100
AcDbMText
 10
19.325355
 20
-7.925539
 30
0.0
 40
0.7
 41
0.0
 71
     5
 72
     1
  1
\A1;4.30+/-0.03
  7
MX_DIMTXSTY_2
 11
0.0
 21
1.0
 31
0.0
  0
POINT
  5
3F
100
AcDbEntity
  8
DEFPOINTS
  6
CONTINUOUS
 62
     0
100
AcDbPoint
 10
11.000001
 20
2.15
 30
0.0
  0
POINT
  5
40
100
AcDbEntity
  8
DEFPOINTS
  6
CONTINUOUS
 62
     0
100
AcDbPoint
 10
11.000001
 20
-2.15
 30
0.0
  0
POINT
  5
41
100
AcDbEntity
  8
DEFPOINTS
  6
CONTINUOUS
 62
     0
100
AcDbPoint
 10
19.875355
 20
-2.15
 30
0.0
  0
ENDBLK
  5
42
100
AcDbEntity
  8
0
  6
ByBlock
 62
     0
100
AcDbBlockEnd
  0
BLOCK
  5
36
100
AcDbEntity
  8
0
  6
ByBlock
 62
     0
100
AcDbBlockBegin
  2
_OPEN
 70
     2
 10
0.0
 20
0.0
 30
0.0
  3
_OPEN
  1

  0
LINE
  5
37
100
AcDbEntity
  8
0
  6
ByBlock
 62
     0
100
AcDbLine
 10
-1.0
 20
0.166667
 30
0.0
 11
0.0
 21
0.0
 31
0.0
  0
LINE
  5
38
100
AcDbEntity
  8
0
  6
ByBlock
 62
     0
100
AcDbLine
 10
0.0
 20
0.0
 30
0.0
 11
-1.0
 21
-0.166667
 31
0.0
  0
LINE
  5
39
100
AcDbEntity
  8
0
  6
ByBlock
 62
     0
100
AcDbLine
 10
0.0
 20
0.0
 30
0.0
 11
-1.0
 21
0.0
 31
0.0
  0
ENDBLK
  5
3A
100
AcDbEntity
  8
0
  6
ByBlock
 62
     0
100
AcDbBlockEnd
  0
BLOCK
  5
45
100
AcDbEntity
  8
0
  6
ByBlock
 62
     0
100
AcDbBlockBegin
  2
*D4
 70
     1
 10
0.0
 20
0.0
 30
0.0
  3
*D4
  1

  0
LINE
  5
46
100
AcDbEntity
  8
0
  6
CONTINUOUS
 62
    51
100
AcDbLine
 10
18.375355
 20
0.0
 30
0.0
 11
18.375355
 21
-3.45
 31
0.0
  0
LINE
  5
47
100
AcDbEntity
  8
0
  6
CONTINUOUS
 62
    51
100
AcDbLine
 10
18.375355
 20
-3.45
 30
0.0
 11
18.375355
 21
-11.775539
 31
0.0
  0
LINE
  5
48
100
AcDbEntity
  8
0
  6
CONTINUOUS
 62
    51
100
AcDbLine
 10
11.779156
 20
0.0
 30
0.0
 11
18.875355
 21
0.0
 31
0.0
  0
LINE
  5
49
100
AcDbEntity
  8
0
  6
CONTINUOUS
 62
    51
100
AcDbLine
 10
9.2
 20
-3.45
 30
0.0
 11
18.875355
 21
-3.45
 31
0.0
  0
LINE
  5
4A
100
AcDbEntity
  8
0
  6
CONTINUOUS
 62
    51
100
AcDbLine
 10
18.375355
 20
0.0
 30
0.0
 11
18.375355
 21
1.27
 31
0.0
  0
LINE
  5
4B
100
AcDbEntity
  8
0
  6
CONTINUOUS
 62
    51
100
AcDbLine
 10
18.375355
 20
-3.45
 30
0.0
 11
18.375355
 21
-4.72
 31
0.0
  0
INSERT
  5
4C
100
AcDbEntity
  8
0
  6
CONTINUOUS
 62
    51
100
AcDbBlockReference
  2
_OPEN
 10
18.375355
 20
0.0
 30
0.0
 41
0.45
 42
0.45
 43
0.45
 50
270.0
  0
INSERT
  5
4D
100
AcDbEntity
  8
0
  6
CONTINUOUS
 62
    51
100
AcDbBlockReference
  2
_OPEN
 10
18.375355
 20
-3.45
 30
0.0
 41
0.45
 42
0.45
 43
0.45
 50
90.0
  0
MTEXT
  5
4F
100
AcDbEntity
  8
0
  6
CONTINUOUS
 62
    51
100
AcDbMText
 10
17.825355
 20
-7.925539
 30
0.0
 40
0.7
 41
0.0
 71
     5
 72
     1
  1
\A1;3.45+/-0.03
  7
MX_DIMTXSTY_3
 11
0.0
 21
1.0
 31
0.0
  0
POINT
  5
50
100
AcDbEntity
  8
DEFPOINTS
  6
CONTINUOUS
 62
     0
100
AcDbPoint
 10
11.779156
 20
0.0
 30
0.0
  0
POINT
  5
51
100
AcDbEntity
  8
DEFPOINTS
  6
CONTINUOUS
 62
     0
100
AcDbPoint
 10
9.2
 20
-3.45
 30
0.0
  0
POINT
  5
52
100
AcDbEntity
  8
DEFPOINTS
  6
CONTINUOUS
 62
     0
100
AcDbPoint
 10
18.375355
 20
-3.45
 30
0.0
  0
ENDBLK
  5
53
100
AcDbEntity
  8
0
  6
ByBlock
 62
     0
100
AcDbBlockEnd
  0
BLOCK
  5
56
100
AcDbEntity
  8
0
  6
ByBlock
 62
     0
100
AcDbBlockBegin
  2
*D5
 70
     1
 10
0.0
 20
0.0
 30
0.0
  3
*D5
  1

  0
LINE
  5
57
100
AcDbEntity
  8
0
  6
CONTINUOUS
 62
    51
100
AcDbLine
 10
5.8
 20
-10.919135
 30
0.0
 11
0.0
 21
-10.919135
 31
0.0
  0
LINE
  5
58
100
AcDbEntity
  8
0
  6
CONTINUOUS
 62
    51
100
AcDbLine
 10
16.657904
 20
-10.919135
 30
0.0
 11
5.8
 21
-10.919135
 31
0.0
  0
LINE
  5
59
100
AcDbEntity
  8
0
  6
CONTINUOUS
 62
    51
100
AcDbLine
 10
5.8
 20
-5.741513
 30
0.0
 11
5.8
 21
-11.419135
 31
0.0
  0
LINE
  5
5A
100
AcDbEntity
  8
0
  6
CONTINUOUS
 62
    51
100
AcDbLine
 10
0.0
 20
-6.330202
 30
0.0
 11
0.0
 21
-11.419135
 31
0.0
  0
LINE
  5
5B
100
AcDbEntity
  8
0
  6
CONTINUOUS
 62
    51
100
AcDbLine
 10
5.8
 20
-10.919135
 30
0.0
 11
7.07
 21
-10.919135
 31
0.0
  0
LINE
  5
5C
100
AcDbEntity
  8
0
  6
CONTINUOUS
 62
    51
100
AcDbLine
 10
0.0
 20
-10.919135
 30
0.0
 11
-1.27
 21
-10.919135
 31
0.0
  0
INSERT
  5
5D
100
AcDbEntity
  8
0
  6
CONTINUOUS
 62
    51
100
AcDbBlockReference
  2
_OPEN
 10
5.8
 20
-10.919135
 30
0.0
 41
0.45
 42
0.45
 43
0.45
 50
180.0
  0
INSERT
  5
63
100
AcDbEntity
  8
0
  6
CONTINUOUS
 62
    51
100
AcDbBlockReference
  2
_DOT
 10
0.0
 20
-10.919135
 30
0.0
 41
0.19905
 42
0.19905
 43
0.19905
  0
MTEXT
  5
64
100
AcDbEntity
  8
0
  6
CONTINUOUS
 62
    51
100
AcDbMText
 10
12.807904
 20
-10.369135
 30
0.0
 40
0.7
 41
0.0
 71
     5
 72
     1
  1
\A1;5.80+/-0.05
  7
MX_DIMTXSTY_2
 11
1.0
 21
0.0
 31
0.0
  0
POINT
  5
65
100
AcDbEntity
  8
DEFPOINTS
  6
CONTINUOUS
 62
     0
100
AcDbPoint
 10
5.8
 20
-5.741513
 30
0.0
  0
POINT
  5
66
100
AcDbEntity
  8
DEFPOINTS
  6
CONTINUOUS
 62
     0
100
AcDbPoint
 10
0.0
 20
-6.330202
 30
0.0
  0
POINT
  5
67
100
AcDbEntity
  8
DEFPOINTS
  6
CONTINUOUS
 62
     0
100
AcDbPoint
 10
0.0
 20
-10.919135
 30
0.0
  0
ENDBLK
  5
68
100
AcDbEntity
  8
0
  6
ByBlock
 62
     0
100
AcDbBlockEnd
  0
BLOCK
  5
5F
100
AcDbEntity
  8
0
  6
ByBlock
 62
     0
100
AcDbBlockBegin
  2
_DOT
 70
     2
 10
0.0
 20
0.0
 30
0.0
  3
_DOT
  1

  0
POLYLINE
  5
60
100
AcDbEntity
  8
0
  6
ByBlock
 62
     0
100
AcDb2dPolyline
 66
     1
 10
0.0
 20
0.0
 30
0.0
 70
     1
 40
0.5
 41
0.5
  0
VERTEX
  5
111
100
AcDbEntity
  8
0
  6
ByBlock
 62
     0
100
AcDbVertex
100
AcDb2dVertex
 10
-0.25
 20
0.0
 30
0.0
 42
1.0
  0
VERTEX
  5
112
100
AcDbEntity
  8
0
  6
ByBlock
 62
     0
100
AcDbVertex
100
AcDb2dVertex
 10
0.25
 20
0.0
 30
0.0
 42
1.0
  0
SEQEND
  5
113
100
AcDbEntity
  8
0
  6
ByBlock
 62
     0
  0
LINE
  5
61
100
AcDbEntity
  8
0
  6
ByBlock
 62
     0
100
AcDbLine
 10
-0.5
 20
0.0
 30
0.0
 11
-1.0
 21
0.0
 31
0.0
  0
ENDBLK
  5
62
100
AcDbEntity
  8
0
  6
ByBlock
 62
     0
100
AcDbBlockEnd
  0
BLOCK
  5
6B
100
AcDbEntity
  8
0
  6
ByBlock
 62
     0
100
AcDbBlockBegin
  2
*D7
 70
     1
 10
0.0
 20
0.0
 30
0.0
  3
*D7
  1

  0
LINE
  5
6C
100
AcDbEntity
  8
0
  6
CONTINUOUS
 62
    51
100
AcDbLine
 10
8.3
 20
-12.419135
 30
0.0
 11
0.0
 21
-12.419135
 31
0.0
  0
LINE
  5
6D
100
AcDbEntity
  8
0
  6
CONTINUOUS
 62
    51
100
AcDbLine
 10
16.657904
 20
-12.419135
 30
0.0
 11
8.3
 21
-12.419135
 31
0.0
  0
LINE
  5
6E
100
AcDbEntity
  8
0
  6
CONTINUOUS
 62
    51
100
AcDbLine
 10
8.3
 20
-5.741513
 30
0.0
 11
8.3
 21
-12.919135
 31
0.0
  0
LINE
  5
6F
100
AcDbEntity
  8
0
  6
CONTINUOUS
 62
    51
100
AcDbLine
 10
0.0
 20
-6.330202
 30
0.0
 11
0.0
 21
-12.919135
 31
0.0
  0
LINE
  5
70
100
AcDbEntity
  8
0
  6
CONTINUOUS
 62
    51
100
AcDbLine
 10
8.3
 20
-12.419135
 30
0.0
 11
9.57
 21
-12.419135
 31
0.0
  0
LINE
  5
71
100
AcDbEntity
  8
0
  6
CONTINUOUS
 62
    51
100
AcDbLine
 10
0.0
 20
-12.419135
 30
0.0
 11
-1.27
 21
-12.419135
 31
0.0
  0
INSERT
  5
72
100
AcDbEntity
  8
0
  6
CONTINUOUS
 62
    51
100
AcDbBlockReference
  2
_OPEN
 10
8.3
 20
-12.419135
 30
0.0
 41
0.45
 42
0.45
 43
0.45
 50
180.0
  0
INSERT
  5
73
100
AcDbEntity
  8
0
  6
CONTINUOUS
 62
    51
100
AcDbBlockReference
  2
_DOT
 10
0.0
 20
-12.419135
 30
0.0
 41
0.19905
 42
0.19905
 43
0.19905
  0
MTEXT
  5
74
100
AcDbEntity
  8
0
  6
CONTINUOUS
 62
    51
100
AcDbMText
 10
12.807904
 20
-11.869135
 30
0.0
 40
0.7
 41
0.0
 71
     5
 72
     1
  1
\A1;8.30+/-0.05
  7
MX_DIMTXSTY_2
 11
1.0
 21
0.0
 31
0.0
  0
POINT
  5
75
100
AcDbEntity
  8
DEFPOINTS
  6
CONTINUOUS
 62
     0
100
AcDbPoint
 10
8.3
 20
-5.741513
 30
0.0
  0
POINT
  5
76
100
AcDbEntity
  8
DEFPOINTS
  6
CONTINUOUS
 62
     0
100
AcDbPoint
 10
0.0
 20
-6.330202
 30
0.0
  0
POINT
  5
77
100
AcDbEntity
  8
DEFPOINTS
  6
CONTINUOUS
 62
     0
100
AcDbPoint
 10
0.0
 20
-12.419135
 30
0.0
  0
ENDBLK
  5
78
100
AcDbEntity
  8
0
  6
ByBlock
 62
     0
100
AcDbBlockEnd
  0
BLOCK
  5
7B
100
AcDbEntity
  8
0
  6
ByBlock
 62
     0
100
AcDbBlockBegin
  2
*D8
 70
     1
 10
0.0
 20
0.0
 30
0.0
  3
*D8
  1

  0
LINE
  5
7C
100
AcDbEntity
  8
0
  6
CONTINUOUS
 62
    51
100
AcDbLine
 10
3.3
 20
-9.419135
 30
0.0
 11
0.0
 21
-9.419135
 31
0.0
  0
LINE
  5
7D
100
AcDbEntity
  8
0
  6
CONTINUOUS
 62
    51
100
AcDbLine
 10
16.657904
 20
-9.419135
 30
0.0
 11
3.3
 21
-9.419135
 31
0.0
  0
LINE
  5
7E
100
AcDbEntity
  8
0
  6
CONTINUOUS
 62
    51
100
AcDbLine
 10
3.3
 20
-5.741513
 30
0.0
 11
3.3
 21
-9.919135
 31
0.0
  0
LINE
  5
7F
100
AcDbEntity
  8
0
  6
CONTINUOUS
 62
    51
100
AcDbLine
 10
0.0
 20
-6.330202
 30
0.0
 11
0.0
 21
-9.919135
 31
0.0
  0
LINE
  5
80
100
AcDbEntity
  8
0
  6
CONTINUOUS
 62
    51
100
AcDbLine
 10
3.3
 20
-9.419135
 30
0.0
 11
4.57
 21
-9.419135
 31
0.0
  0
LINE
  5
81
100
AcDbEntity
  8
0
  6
CONTINUOUS
 62
    51
100
AcDbLine
 10
0.0
 20
-9.419135
 30
0.0
 11
-1.27
 21
-9.419135
 31
0.0
  0
INSERT
  5
82
100
AcDbEntity
  8
0
  6
CONTINUOUS
 62
    51
100
AcDbBlockReference
  2
_OPEN
 10
3.3
 20
-9.419135
 30
0.0
 41
0.45
 42
0.45
 43
0.45
 50
180.0
  0
INSERT
  5
83
100
AcDbEntity
  8
0
  6
CONTINUOUS
 62
    51
100
AcDbBlockReference
  2
_DOT
 10
0.0
 20
-9.419135
 30
0.0
 41
0.19905
 42
0.19905
 43
0.19905
  0
MTEXT
  5
84
100
AcDbEntity
  8
0
  6
CONTINUOUS
 62
    51
100
AcDbMText
 10
12.807904
 20
-8.869135
 30
0.0
 40
0.7
 41
0.0
 71
     5
 72
     1
  1
\A1;3.30+/-0.05
  7
MX_DIMTXSTY_2
 11
1.0
 21
0.0
 31
0.0
  0
POINT
  5
85
100
AcDbEntity
  8
DEFPOINTS
  6
CONTINUOUS
 62
     0
100
AcDbPoint
 10
3.3
 20
-5.741513
 30
0.0
  0
POINT
  5
86
100
AcDbEntity
  8
DEFPOINTS
  6
CONTINUOUS
 62
     0
100
AcDbPoint
 10
0.0
 20
-6.330202
 30
0.0
  0
POINT
  5
87
100
AcDbEntity
  8
DEFPOINTS
  6
CONTINUOUS
 62
     0
100
AcDbPoint
 10
0.0
 20
-9.419135
 30
0.0
  0
ENDBLK
  5
88
100
AcDbEntity
  8
0
  6
ByBlock
 62
     0
100
AcDbBlockEnd
  0
BLOCK
  5
8B
100
AcDbEntity
  8
0
  6
ByBlock
 62
     0
100
AcDbBlockBegin
  2
*D9
 70
     1
 10
0.0
 20
0.0
 30
0.0
  3
*D9
  1

  0
LINE
  5
8C
100
AcDbEntity
  8
0
  6
CONTINUOUS
 62
    51
100
AcDbLine
 10
0.0
 20
-12.419135
 30
0.0
 11
-7.4
 21
-12.419135
 31
0.0
  0
LINE
  5
8D
100
AcDbEntity
  8
0
  6
CONTINUOUS
 62
    51
100
AcDbLine
 10
-7.4
 20
-12.419135
 30
0.0
 11
-16.560661
 21
-12.419135
 31
0.0
  0
LINE
  5
8E
100
AcDbEntity
  8
0
  6
CONTINUOUS
 62
    51
100
AcDbLine
 10
0.0
 20
-6.330202
 30
0.0
 11
0.0
 21
-12.919135
 31
0.0
  0
LINE
  5
8F
100
AcDbEntity
  8
0
  6
CONTINUOUS
 62
    51
100
AcDbLine
 10
-7.4
 20
-5.741513
 30
0.0
 11
-7.4
 21
-12.919135
 31
0.0
  0
LINE
  5
90
100
AcDbEntity
  8
0
  6
CONTINUOUS
 62
    51
100
AcDbLine
 10
0.0
 20
-12.419135
 30
0.0
 11
1.27
 21
-12.419135
 31
0.0
  0
LINE
  5
91
100
AcDbEntity
  8
0
  6
CONTINUOUS
 62
    51
100
AcDbLine
 10
-7.4
 20
-12.419135
 30
0.0
 11
-8.67
 21
-12.419135
 31
0.0
  0
INSERT
  5
92
100
AcDbEntity
  8
0
  6
CONTINUOUS
 62
    51
100
AcDbBlockReference
  2
_DOT
 10
0.0
 20
-12.419135
 30
0.0
 41
0.19905
 42
0.19905
 43
0.19905
 50
180.0
  0
INSERT
  5
93
100
AcDbEntity
  8
0
  6
CONTINUOUS
 62
    51
100
AcDbBlockReference
  2
_OPEN
 10
-7.4
 20
-12.419135
 30
0.0
 41
0.45
 42
0.45
 43
0.45
  0
MTEXT
  5
94
100
AcDbEntity
  8
0
  6
CONTINUOUS
 62
    51
100
AcDbMText
 10
-12.710661
 20
-11.869135
 30
0.0
 40
0.7
 41
0.0
 71
     5
 72
     1
  1
\A1;7.40+/-0.05
  7
MX_DIMTXSTY_2
 11
1.0
 21
0.0
 31
0.0
  0
POINT
  5
95
100
AcDbEntity
  8
DEFPOINTS
  6
CONTINUOUS
 62
     0
100
AcDbPoint
 10
0.0
 20
-6.330202
 30
0.0
  0
POINT
  5
96
100
AcDbEntity
  8
DEFPOINTS
  6
CONTINUOUS
 62
     0
100
AcDbPoint
 10
-7.4
 20
-5.741513
 30
0.0
  0
POINT
  5
97
100
AcDbEntity
  8
DEFPOINTS
  6
CONTINUOUS
 62
     0
100
AcDbPoint
 10
-7.4
 20
-12.419135
 30
0.0
  0
ENDBLK
  5
98
100
AcDbEntity
  8
0
  6
ByBlock
 62
     0
100
AcDbBlockEnd
  0
BLOCK
  5
9B
100
AcDbEntity
  8
0
  6
ByBlock
 62
     0
100
AcDbBlockBegin
  2
*D10
 70
     1
 10
0.0
 20
0.0
 30
0.0
  3
*D10
  1

  0
LINE
  5
9C
100
AcDbEntity
  8
0
  6
CONTINUOUS
 62
    51
100
AcDbLine
 10
0.0
 20
-10.919135
 30
0.0
 11
-4.9
 21
-10.919135
 31
0.0
  0
LINE
  5
9D
100
AcDbEntity
  8
0
  6
CONTINUOUS
 62
    51
100
AcDbLine
 10
-4.9
 20
-10.919135
 30
0.0
 11
-16.560661
 21
-10.919135
 31
0.0
  0
LINE
  5
9E
100
AcDbEntity
  8
0
  6
CONTINUOUS
 62
    51
100
AcDbLine
 10
0.0
 20
-6.330202
 30
0.0
 11
0.0
 21
-11.419135
 31
0.0
  0
LINE
  5
9F
100
AcDbEntity
  8
0
  6
CONTINUOUS
 62
    51
100
AcDbLine
 10
-4.9
 20
-5.741512
 30
0.0
 11
-4.9
 21
-11.419135
 31
0.0
  0
LINE
  5
A0
100
AcDbEntity
  8
0
  6
CONTINUOUS
 62
    51
100
AcDbLine
 10
0.0
 20
-10.919135
 30
0.0
 11
1.27
 21
-10.919135
 31
0.0
  0
LINE
  5
A1
100
AcDbEntity
  8
0
  6
CONTINUOUS
 62
    51
100
AcDbLine
 10
-4.9
 20
-10.919135
 30
0.0
 11
-6.17
 21
-10.919135
 31
0.0
  0
INSERT
  5
A2
100
AcDbEntity
  8
0
  6
CONTINUOUS
 62
    51
100
AcDbBlockReference
  2
_DOT
 10
0.0
 20
-10.919135
 30
0.0
 41
0.19905
 42
0.19905
 43
0.19905
 50
180.0
  0
INSERT
  5
A3
100
AcDbEntity
  8
0
  6
CONTINUOUS
 62
    51
100
AcDbBlockReference
  2
_OPEN
 10
-4.9
 20
-10.919135
 30
0.0
 41
0.45
 42
0.45
 43
0.45
  0
MTEXT
  5
A4
100
AcDbEntity
  8
0
  6
CONTINUOUS
 62
    51
100
AcDbMText
 10
-12.710661
 20
-10.369135
 30
0.0
 40
0.7
 41
0.0
 71
     5
 72
     1
  1
\A1;4.90+/-0.05
  7
MX_DIMTXSTY_2
 11
1.0
 21
0.0
 31
0.0
  0
POINT
  5
A5
100
AcDbEntity
  8
DEFPOINTS
  6
CONTINUOUS
 62
     0
100
AcDbPoint
 10
0.0
 20
-6.330202
 30
0.0
  0
POINT
  5
A6
100
AcDbEntity
  8
DEFPOINTS
  6
CONTINUOUS
 62
     0
100
AcDbPoint
 10
-4.9
 20
-5.741512
 30
0.0
  0
POINT
  5
A7
100
AcDbEntity
  8
DEFPOINTS
  6
CONTINUOUS
 62
     0
100
AcDbPoint
 10
-4.9
 20
-10.919135
 30
0.0
  0
ENDBLK
  5
A8
100
AcDbEntity
  8
0
  6
ByBlock
 62
     0
100
AcDbBlockEnd
  0
BLOCK
  5
AB
100
AcDbEntity
  8
0
  6
ByBlock
 62
     0
100
AcDbBlockBegin
  2
*D11
 70
     1
 10
0.0
 20
0.0
 30
0.0
  3
*D11
  1

  0
LINE
  5
AC
100
AcDbEntity
  8
0
  6
CONTINUOUS
 62
    51
100
AcDbLine
 10
0.0
 20
-9.419135
 30
0.0
 11
-2.4
 21
-9.419135
 31
0.0
  0
LINE
  5
AD
100
AcDbEntity
  8
0
  6
CONTINUOUS
 62
    51
100
AcDbLine
 10
-2.4
 20
-9.419135
 30
0.0
 11
-16.560661
 21
-9.419135
 31
0.0
  0
LINE
  5
AE
100
AcDbEntity
  8
0
  6
CONTINUOUS
 62
    51
100
AcDbLine
 10
0.0
 20
-6.330202
 30
0.0
 11
0.0
 21
-9.919135
 31
0.0
  0
LINE
  5
AF
100
AcDbEntity
  8
0
  6
CONTINUOUS
 62
    51
100
AcDbLine
 10
-2.4
 20
-5.741513
 30
0.0
 11
-2.4
 21
-9.919135
 31
0.0
  0
LINE
  5
B0
100
AcDbEntity
  8
0
  6
CONTINUOUS
 62
    51
100
AcDbLine
 10
0.0
 20
-9.419135
 30
0.0
 11
1.27
 21
-9.419135
 31
0.0
  0
LINE
  5
B1
100
AcDbEntity
  8
0
  6
CONTINUOUS
 62
    51
100
AcDbLine
 10
-2.4
 20
-9.419135
 30
0.0
 11
-3.67
 21
-9.419135
 31
0.0
  0
INSERT
  5
B2
100
AcDbEntity
  8
0
  6
CONTINUOUS
 62
    51
100
AcDbBlockReference
  2
_DOT
 10
0.0
 20
-9.419135
 30
0.0
 41
0.19905
 42
0.19905
 43
0.19905
 50
180.0
  0
INSERT
  5
B3
100
AcDbEntity
  8
0
  6
CONTINUOUS
 62
    51
100
AcDbBlockReference
  2
_OPEN
 10
-2.4
 20
-9.419135
 30
0.0
 41
0.45
 42
0.45
 43
0.45
  0
MTEXT
  5
B4
100
AcDbEntity
  8
0
  6
CONTINUOUS
 62
    51
100
AcDbMText
 10
-12.710661
 20
-8.869135
 30
0.0
 40
0.7
 41
0.0
 71
     5
 72
     1
  1
\A1;2.40+/-0.05
  7
MX_DIMTXSTY_2
 11
1.0
 21
0.0
 31
0.0
  0
POINT
  5
B5
100
AcDbEntity
  8
DEFPOINTS
  6
CONTINUOUS
 62
     0
100
AcDbPoint
 10
0.0
 20
-6.330202
 30
0.0
  0
POINT
  5
B6
100
AcDbEntity
  8
DEFPOINTS
  6
CONTINUOUS
 62
     0
100
AcDbPoint
 10
-2.4
 20
-5.741513
 30
0.0
  0
POINT
  5
B7
100
AcDbEntity
  8
DEFPOINTS
  6
CONTINUOUS
 62
     0
100
AcDbPoint
 10
-2.4
 20
-9.419135
 30
0.0
  0
ENDBLK
  5
B8
100
AcDbEntity
  8
0
  6
ByBlock
 62
     0
100
AcDbBlockEnd
  0
BLOCK
  5
BB
100
AcDbEntity
  8
0
  6
ByBlock
 62
     0
100
AcDbBlockBegin
  2
*D12
 70
     1
 10
0.0
 20
0.0
 30
0.0
  3
*D12
  1

  0
LINE
  5
BC
100
AcDbEntity
  8
0
  6
CONTINUOUS
 62
    51
100
AcDbLine
 10
-6.5
 20
-7.919135
 30
0.0
 11
-8.3
 21
-7.919135
 31
0.0
  0
LINE
  5
BD
100
AcDbEntity
  8
0
  6
CONTINUOUS
 62
    51
100
AcDbLine
 10
-8.3
 20
-7.919135
 30
0.0
 11
-16.560661
 21
-7.919135
 31
0.0
  0
LINE
  5
BE
100
AcDbEntity
  8
0
  6
CONTINUOUS
 62
    51
100
AcDbLine
 10
-6.5
 20
-5.3
 30
0.0
 11
-6.5
 21
-8.419135
 31
0.0
  0
LINE
  5
BF
100
AcDbEntity
  8
0
  6
CONTINUOUS
 62
    51
100
AcDbLine
 10
-8.3
 20
-5.3
 30
0.0
 11
-8.3
 21
-8.419135
 31
0.0
  0
LINE
  5
C0
100
AcDbEntity
  8
0
  6
CONTINUOUS
 62
    51
100
AcDbLine
 10
-6.5
 20
-7.919135
 30
0.0
 11
-5.23
 21
-7.919135
 31
0.0
  0
LINE
  5
C1
100
AcDbEntity
  8
0
  6
CONTINUOUS
 62
    51
100
AcDbLine
 10
-8.3
 20
-7.919135
 30
0.0
 11
-9.57
 21
-7.919135
 31
0.0
  0
INSERT
  5
C2
100
AcDbEntity
  8
0
  6
CONTINUOUS
 62
    51
100
AcDbBlockReference
  2
_OPEN
 10
-6.5
 20
-7.919135
 30
0.0
 41
0.45
 42
0.45
 43
0.45
 50
180.0
  0
INSERT
  5
C3
100
AcDbEntity
  8
0
  6
CONTINUOUS
 62
    51
100
AcDbBlockReference
  2
_OPEN
 10
-8.3
 20
-7.919135
 30
0.0
 41
0.45
 42
0.45
 43
0.45
  0
MTEXT
  5
C5
100
AcDbEntity
  8
0
  6
CONTINUOUS
 62
    51
100
AcDbMText
 10
-12.71066
 20
-7.369135
 30
0.0
 40
0.7
 41
0.0
 71
     5
 72
     1
  1
\A1;1.80+/-0.03
  7
MX_DIMTXSTY_4
 11
1.0
 21
0.0
 31
0.0
  0
POINT
  5
C6
100
AcDbEntity
  8
DEFPOINTS
  6
CONTINUOUS
 62
     0
100
AcDbPoint
 10
-6.5
 20
-5.3
 30
0.0
  0
POINT
  5
C7
100
AcDbEntity
  8
DEFPOINTS
  6
CONTINUOUS
 62
     0
100
AcDbPoint
 10
-8.3
 20
-5.3
 30
0.0
  0
POINT
  5
C8
100
AcDbEntity
  8
DEFPOINTS
  6
CONTINUOUS
 62
     0
100
AcDbPoint
 10
-8.3
 20
-7.919135
 30
0.0
  0
ENDBLK
  5
C9
100
AcDbEntity
  8
0
  6
ByBlock
 62
     0
100
AcDbBlockEnd
  0
BLOCK
  5
CC
100
AcDbEntity
  8
0
  6
ByBlock
 62
     0
100
AcDbBlockBegin
  2
*D13
 70
     1
 10
0.0
 20
0.0
 30
0.0
  3
*D13
  1

  0
LINE
  5
CD
100
AcDbEntity
  8
0
  6
CONTINUOUS
 62
    51
100
AcDbLine
 10
-12.546098
 20
-5.3
 30
0.0
 11
-12.546098
 21
-3.45
 31
0.0
  0
LINE
  5
CE
100
AcDbEntity
  8
0
  6
CONTINUOUS
 62
    51
100
AcDbLine
 10
-12.546098
 20
-3.45
 30
0.0
 11
-12.546098
 21
6.010304
 31
0.0
  0
LINE
  5
CF
100
AcDbEntity
  8
0
  6
CONTINUOUS
 62
    51
100
AcDbLine
 10
-8.3
 20
-5.3
 30
0.0
 11
-13.046098
 21
-5.3
 31
0.0
  0
LINE
  5
D0
100
AcDbEntity
  8
0
  6
CONTINUOUS
 62
    51
100
AcDbLine
 10
-8.3
 20
-3.45
 30
0.0
 11
-13.046098
 21
-3.45
 31
0.0
  0
LINE
  5
D1
100
AcDbEntity
  8
0
  6
CONTINUOUS
 62
    51
100
AcDbLine
 10
-12.546098
 20
-5.3
 30
0.0
 11
-12.546098
 21
-6.57
 31
0.0
  0
LINE
  5
D2
100
AcDbEntity
  8
0
  6
CONTINUOUS
 62
    51
100
AcDbLine
 10
-12.546098
 20
-3.45
 30
0.0
 11
-12.546098
 21
-2.18
 31
0.0
  0
INSERT
  5
D3
100
AcDbEntity
  8
0
  6
CONTINUOUS
 62
    51
100
AcDbBlockReference
  2
_OPEN
 10
-12.546098
 20
-5.3
 30
0.0
 41
0.45
 42
0.45
 43
0.45
 50
90.0
  0
INSERT
  5
D4
100
AcDbEntity
  8
0
  6
CONTINUOUS
 62
    51
100
AcDbBlockReference
  2
_OPEN
 10
-12.546098
 20
-3.45
 30
0.0
 41
0.45
 42
0.45
 43
0.45
 50
270.0
  0
MTEXT
  5
D5
100
AcDbEntity
  8
0
  6
CONTINUOUS
 62
    51
100
AcDbMText
 10
-13.096098
 20
2.160303
 30
0.0
 40
0.7
 41
0.0
 71
     5
 72
     1
  1
\A1;1.85+/-0.03
  7
MX_DIMTXSTY_2
 11
0.0
 21
1.0
 31
0.0
  0
POINT
  5
D6
100
AcDbEntity
  8
DEFPOINTS
  6
CONTINUOUS
 62
     0
100
AcDbPoint
 10
-8.3
 20
-5.3
 30
0.0
  0
POINT
  5
D7
100
AcDbEntity
  8
DEFPOINTS
  6
CONTINUOUS
 62
     0
100
AcDbPoint
 10
-8.3
 20
-3.45
 30
0.0
  0
POINT
  5
D8
100
AcDbEntity
  8
DEFPOINTS
  6
CONTINUOUS
 62
     0
100
AcDbPoint
 10
-12.546098
 20
-3.45
 30
0.0
  0
ENDBLK
  5
D9
100
AcDbEntity
  8
0
  6
ByBlock
 62
     0
100
AcDbBlockEnd
  0
BLOCK
  5
DC
100
AcDbEntity
  8
0
  6
ByBlock
 62
     0
100
AcDbBlockBegin
  2
*D14
 70
     1
 10
0.0
 20
0.0
 30
0.0
  3
*D14
  1

  0
LINE
  5
DD
100
AcDbEntity
  8
0
  6
CONTINUOUS
 62
    51
100
AcDbLine
 10
-11.0
 20
6.128737
 30
0.0
 11
11.0
 21
6.128737
 31
0.0
  0
LINE
  5
DE
100
AcDbEntity
  8
0
  6
CONTINUOUS
 62
    51
100
AcDbLine
 10
-11.0
 20
2.15
 30
0.0
 11
-11.0
 21
6.628737
 31
0.0
  0
LINE
  5
DF
100
AcDbEntity
  8
0
  6
CONTINUOUS
 62
    51
100
AcDbLine
 10
11.0
 20
2.15
 30
0.0
 11
11.0
 21
6.628737
 31
0.0
  0
INSERT
  5
E0
100
AcDbEntity
  8
0
  6
CONTINUOUS
 62
    51
100
AcDbBlockReference
  2
_OPEN
 10
-11.0
 20
6.128737
 30
0.0
 41
0.45
 42
0.45
 43
0.45
 50
180.0
  0
INSERT
  5
E1
100
AcDbEntity
  8
0
  6
CONTINUOUS
 62
    51
100
AcDbBlockReference
  2
_OPEN
 10
11.0
 20
6.128737
 30
0.0
 41
0.45
 42
0.45
 43
0.45
  0
MTEXT
  5
E2
100
AcDbEntity
  8
0
  6
CONTINUOUS
 62
    51
100
AcDbMText
 10
0.0
 20
6.678737
 30
0.0
 40
0.7
 41
0.0
 71
     5
 72
     1
  1
\A1;22.00+/-0.05
  7
MX_DIMTXSTY_2
  0
POINT
  5
E3
100
AcDbEntity
  8
DEFPOINTS
  6
CONTINUOUS
 62
     0
100
AcDbPoint
 10
-11.0
 20
2.15
 30
0.0
  0
POINT
  5
E4
100
AcDbEntity
  8
DEFPOINTS
  6
CONTINUOUS
 62
     0
100
AcDbPoint
 10
11.0
 20
2.15
 30
0.0
  0
POINT
  5
E5
100
AcDbEntity
  8
DEFPOINTS
  6
CONTINUOUS
 62
     0
100
AcDbPoint
 10
11.0
 20
6.128737
 30
0.0
  0
ENDBLK
  5
E6
100
AcDbEntity
  8
0
  6
ByBlock
 62
     0
100
AcDbBlockEnd
  0
BLOCK
  5
E9
100
AcDbEntity
  8
0
  6
ByBlock
 62
     0
100
AcDbBlockBegin
  2
*D15
 70
     1
 10
0.0
 20
0.0
 30
0.0
  3
*D15
  1

  0
LINE
  5
EA
100
AcDbEntity
  8
0
  6
CONTINUOUS
 62
    51
100
AcDbLine
 10
-9.25
 20
4.628737
 30
0.0
 11
9.25
 21
4.628737
 31
0.0
  0
LINE
  5
EB
100
AcDbEntity
  8
0
  6
CONTINUOUS
 62
    51
100
AcDbLine
 10
-9.25
 20
2.15
 30
0.0
 11
-9.25
 21
5.128737
 31
0.0
  0
LINE
  5
EC
100
AcDbEntity
  8
0
  6
CONTINUOUS
 62
    51
100
AcDbLine
 10
9.25
 20
2.15
 30
0.0
 11
9.25
 21
5.128737
 31
0.0
  0
INSERT
  5
ED
100
AcDbEntity
  8
0
  6
CONTINUOUS
 62
    51
100
AcDbBlockReference
  2
_OPEN
 10
-9.25
 20
4.628737
 30
0.0
 41
0.45
 42
0.45
 43
0.45
 50
180.0
  0
INSERT
  5
EE
100
AcDbEntity
  8
0
  6
CONTINUOUS
 62
    51
100
AcDbBlockReference
  2
_OPEN
 10
9.25
 20
4.628737
 30
0.0
 41
0.45
 42
0.45
 43
0.45
  0
MTEXT
  5
EF
100
AcDbEntity
  8
0
  6
CONTINUOUS
 62
    51
100
AcDbMText
 10
0.0
 20
5.178737
 30
0.0
 40
0.7
 41
0.0
 71
     5
 72
     1
  1
\A1;18.50+/-0.05
  7
MX_DIMTXSTY_2
  0
POINT
  5
F0
100
AcDbEntity
  8
DEFPOINTS
  6
CONTINUOUS
 62
     0
100
AcDbPoint
 10
-9.25
 20
2.15
 30
0.0
  0
POINT
  5
F1
100
AcDbEntity
  8
DEFPOINTS
  6
CONTINUOUS
 62
     0
100
AcDbPoint
 10
9.25
 20
2.15
 30
0.0
  0
POINT
  5
F2
100
AcDbEntity
  8
DEFPOINTS
  6
CONTINUOUS
 62
     0
100
AcDbPoint
 10
9.25
 20
4.628737
 30
0.0
  0
ENDBLK
  5
F3
100
AcDbEntity
  8
0
  6
ByBlock
 62
     0
100
AcDbBlockEnd
  0
ENDSEC
  0
SECTION
  2
ENTITIES
  0
DIMENSION
  5
43
100
AcDbEntity
  8
LY_1
  6
CONTINUOUS
 62
    51
100
AcDbDimension
  2
*D2
 10
19.875355
 20
-2.15
 30
0.0
 11
19.875355
 21
-7.925539
 31
0.0
 70
   128
  1
\A1;<>+/-0.03
  3
MXDIMSTYLE
100
AcDbAlignedDimension
 13
11.000001
 23
2.15
 33
0.0
 14
11.000001
 24
-2.15
 34
0.0
 50
90.0
100
AcDbRotatedDimension
1001
ACAD
1000
DSTYLE
1002
{
1070
     6
1000
_OPEN
1070
     7
1000
_OPEN
1070
    41
1040
0.45
1070
    44
1040
0.5
1070
    78
1070
     0
1070
   140
1040
0.7
1070
   340
1005
3D
1070
   343
1005
35
1070
   344
1005
35
1002
}
  0
DIMENSION
  5
54
100
AcDbEntity
  8
LY_1
  6
CONTINUOUS
 62
    51
100
AcDbDimension
  2
*D4
 10
18.375355
 20
-3.45
 30
0.0
 11
18.375355
 21
-7.925539
 31
0.0
 70
   128
  1
\A1;<>+/-0.03
  3
MXDIMSTYLE
100
AcDbAlignedDimension
 13
11.779156
 23
0.0
 33
0.0
 14
9.2
 24
-3.45
 34
0.0
 50
90.0
100
AcDbRotatedDimension
1001
ACAD
1000
DSTYLE
1002
{
1070
     6
1000
_OPEN
1070
     7
1000
_OPEN
1070
    41
1040
0.45
1070
    44
1040
0.5
1070
   140
1040
0.7
1070
   284
1070
     8
1070
   340
1005
4E
1070
   343
1005
35
1070
   344
1005
35
1002
}
  0
DIMENSION
  5
69
100
AcDbEntity
  8
LY_1
  6
CONTINUOUS
 62
    51
100
AcDbDimension
  2
*D5
 10
0.0
 20
-10.919135
 30
0.0
 11
12.807904
 21
-10.919135
 31
0.0
 70
   128
  1
\A1;<>+/-0.05
  3
MXDIMSTYLE
100
AcDbAlignedDimension
 13
5.8
 23
-5.741513
 33
0.0
 14
0.0
 24
-6.330202
 34
0.0
100
AcDbRotatedDimension
1001
ACAD
1000
DSTYLE
1002
{
1070
     6
1000
_OPEN
1070
     7
1000
_DOT
1070
    41
1040
0.45
1070
    44
1040
0.5
1070
    78
1070
     0
1070
   140
1040
0.7
1070
   340
1005
3D
1070
   343
1005
35
1070
   344
1005
5E
1002
}
  0
DIMENSION
  5
79
100
AcDbEntity
  8
LY_1
  6
CONTINUOUS
 62
    51
100
AcDbDimension
  2
*D7
 10
0.0
 20
-12.419135
 30
0.0
 11
12.807904
 21
-12.419135
 31
0.0
 70
   128
  1
\A1;<>+/-0.05
  3
MXDIMSTYLE
100
AcDbAlignedDimension
 13
8.3
 23
-5.741513
 33
0.0
 14
0.0
 24
-6.330202
 34
0.0
100
AcDbRotatedDimension
1001
ACAD
1000
DSTYLE
1002
{
1070
     6
1000
_OPEN
1070
     7
1000
_DOT
1070
    41
1040
0.45
1070
    44
1040
0.5
1070
    78
1070
     0
1070
   140
1040
0.7
1070
   340
1005
3D
1070
   343
1005
35
1070
   344
1005
5E
1002
}
  0
DIMENSION
  5
89
100
AcDbEntity
  8
LY_1
  6
CONTINUOUS
 62
    51
100
AcDbDimension
  2
*D8
 10
0.0
 20
-9.419135
 30
0.0
 11
12.807904
 21
-9.419135
 31
0.0
 70
   128
  1
\A1;<>+/-0.05
  3
MXDIMSTYLE
100
AcDbAlignedDimension
 13
3.3
 23
-5.741513
 33
0.0
 14
0.0
 24
-6.330202
 34
0.0
100
AcDbRotatedDimension
1001
ACAD
1000
DSTYLE
1002
{
1070
     6
1000
_OPEN
1070
     7
1000
_DOT
1070
    41
1040
0.45
1070
    44
1040
0.5
1070
    78
1070
     0
1070
   140
1040
0.7
1070
   340
1005
3D
1070
   343
1005
35
1070
   344
1005
5E
1002
}
  0
DIMENSION
  5
99
100
AcDbEntity
  8
LY_1
  6
CONTINUOUS
 62
    51
100
AcDbDimension
  2
*D9
 10
-7.4
 20
-12.419135
 30
0.0
 11
-12.710661
 21
-12.419135
 31
0.0
 70
   128
  1
\A1;<>+/-0.05
  3
MXDIMSTYLE
100
AcDbAlignedDimension
 13
0.0
 23
-6.330202
 33
0.0
 14
-7.4
 24
-5.741513
 34
0.0
100
AcDbRotatedDimension
1001
ACAD
1000
DSTYLE
1002
{
1070
     6
1000
_DOT
1070
     7
1000
_OPEN
1070
    41
1040
0.19905
1070
    44
1040
0.5
1070
    78
1070
     0
1070
   140
1040
0.7
1070
   340
1005
3D
1070
   343
1005
5E
1070
   344
1005
35
1002
}
  0
DIMENSION
  5
A9
100
AcDbEntity
  8
LY_1
  6
CONTINUOUS
 62
    51
100
AcDbDimension
  2
*D10
 10
-4.9
 20
-10.919135
 30
0.0
 11
-12.710661
 21
-10.919135
 31
0.0
 70
   128
  1
\A1;<>+/-0.05
  3
MXDIMSTYLE
100
AcDbAlignedDimension
 13
0.0
 23
-6.330202
 33
0.0
 14
-4.9
 24
-5.741512
 34
0.0
100
AcDbRotatedDimension
1001
ACAD
1000
DSTYLE
1002
{
1070
     6
1000
_DOT
1070
     7
1000
_OPEN
1070
    41
1040
0.19905
1070
    44
1040
0.5
1070
    78
1070
     0
1070
   140
1040
0.7
1070
   340
1005
3D
1070
   343
1005
5E
1070
   344
1005
35
1002
}
  0
DIMENSION
  5
B9
100
AcDbEntity
  8
LY_1
  6
CONTINUOUS
 62
    51
100
AcDbDimension
  2
*D11
 10
-2.4
 20
-9.419135
 30
0.0
 11
-12.710661
 21
-9.419135
 31
0.0
 70
   128
  1
\A1;<>+/-0.05
  3
MXDIMSTYLE
100
AcDbAlignedDimension
 13
0.0
 23
-6.330202
 33
0.0
 14
-2.4
 24
-5.741513
 34
0.0
100
AcDbRotatedDimension
1001
ACAD
1000
DSTYLE
1002
{
1070
     6
1000
_DOT
1070
     7
1000
_OPEN
1070
    41
1040
0.19905
1070
    44
1040
0.5
1070
    78
1070
     0
1070
   140
1040
0.7
1070
   340
1005
3D
1070
   343
1005
5E
1070
   344
1005
35
1002
}
  0
DIMENSION
  5
CA
100
AcDbEntity
  8
LY_1
  6
CONTINUOUS
 62
    51
100
AcDbDimension
  2
*D12
 10
-8.3
 20
-7.919135
 30
0.0
 11
-12.71066
 21
-7.919135
 31
0.0
 70
   128
  1
\A1;<>+/-0.03
  3
MXDIMSTYLE
100
AcDbAlignedDimension
 13
-6.5
 23
-5.3
 33
0.0
 14
-8.3
 24
-5.3
 34
0.0
100
AcDbRotatedDimension
1001
ACAD
1000
DSTYLE
1002
{
1070
     6
1000
_OPEN
1070
     7
1000
_OPEN
1070
    41
1040
0.45
1070
    44
1040
0.5
1070
    78
1070
     0
1070
   140
1040
0.7
1070
   340
1005
C4
1070
   343
1005
35
1070
   344
1005
35
1002
}
  0
DIMENSION
  5
DA
100
AcDbEntity
  8
LY_1
  6
CONTINUOUS
 62
    51
100
AcDbDimension
  2
*D13
 10
-12.546098
 20
-3.45
 30
0.0
 11
-12.546098
 21
2.160303
 31
0.0
 70
   128
  1
\A1;<>+/-0.03
  3
MXDIMSTYLE
100
AcDbAlignedDimension
 13
-8.3
 23
-5.3
 33
0.0
 14
-8.3
 24
-3.45
 34
0.0
 50
90.0
100
AcDbRotatedDimension
1001
ACAD
1000
DSTYLE
1002
{
1070
     6
1000
_OPEN
1070
     7
1000
_OPEN
1070
    41
1040
0.45
1070
    44
1040
0.5
1070
   140
1040
0.7
1070
   284
1070
     8
1070
   340
1005
3D
1070
   343
1005
35
1070
   344
1005
35
1002
}
  0
DIMENSION
  5
E7
100
AcDbEntity
  8
LY_1
  6
CONTINUOUS
 62
    51
100
AcDbDimension
  2
*D14
 10
11.0
 20
6.128737
 30
0.0
 11
0.0
 21
6.128737
 31
0.0
 70
   128
  1
\A1;<>+/-0.05
  3
MXDIMSTYLE
100
AcDbAlignedDimension
 13
-11.0
 23
2.15
 33
0.0
 14
11.0
 24
2.15
 34
0.0
100
AcDbRotatedDimension
1001
ACAD
1000
DSTYLE
1002
{
1070
     6
1000
_OPEN
1070
     7
1000
_OPEN
1070
    41
1040
0.45
1070
    44
1040
0.5
1070
    78
1070
     0
1070
   140
1040
0.7
1070
   340
1005
3D
1070
   343
1005
35
1070
   344
1005
35
1002
}
  0
DIMENSION
  5
F4
100
AcDbEntity
  8
LY_1
  6
CONTINUOUS
 62
    51
100
AcDbDimension
  2
*D15
 10
9.25
 20
4.628737
 30
0.0
 11
0.0
 21
4.628737
 31
0.0
 70
   128
  1
\A1;<>+/-0.05
  3
MXDIMSTYLE
100
AcDbAlignedDimension
 13
-9.25
 23
2.15
 33
0.0
 14
9.25
 24
2.15
 34
0.0
100
AcDbRotatedDimension
1001
ACAD
1000
DSTYLE
1002
{
1070
     6
1000
_OPEN
1070
     7
1000
_OPEN
1070
    41
1040
0.45
1070
    44
1040
0.5
1070
    78
1070
     0
1070
   140
1040
0.7
1070
   340
1005
3D
1070
   343
1005
35
1070
   344
1005
35
1002
}
  0
LINE
  5
F5
100
AcDbEntity
  8
LY_1
  6
CONTINUOUS
 62
    42
100
AcDbLine
 10
9.25
 20
-2.15
 30
0.0
 11
9.25
 21
2.15
 31
0.0
  0
LINE
  5
F6
100
AcDbEntity
  8
LY_1
  6
CONTINUOUS
 62
    42
100
AcDbLine
 10
11.0
 20
-2.15
 30
0.0
 11
11.0
 21
2.15
 31
0.0
  0
LINE
  5
F7
100
AcDbEntity
  8
LY_1
  6
CONTINUOUS
 62
    42
100
AcDbLine
 10
9.25
 20
2.15
 30
0.0
 11
11.0
 21
2.15
 31
0.0
  0
LINE
  5
F8
100
AcDbEntity
  8
LY_1
  6
CONTINUOUS
 62
    42
100
AcDbLine
 10
9.25
 20
-2.15
 30
0.0
 11
11.0
 21
-2.15
 31
0.0
  0
INSERT
  5
F9
100
AcDbEntity
  8
LY_1
  6
ByBlock
 62
    52
100
AcDbBlockReference
  2
MS_1
 10
3.3
 20
-3.45
 30
0.0
  0
INSERT
  5
FA
100
AcDbEntity
  8
LY_1
  6
ByBlock
 62
    52
100
AcDbBlockReference
  2
MS_1
 10
5.8
 20
-3.45
 30
0.0
  0
INSERT
  5
FB
100
AcDbEntity
  8
LY_1
  6
ByBlock
 62
    52
100
AcDbBlockReference
  2
MS_1
 10
8.3
 20
-3.45
 30
0.0
  0
LINE
  5
FD
100
AcDbEntity
  8
LY_1
  6
CENTER
 62
    52
100
AcDbLine
 10
8.3
 20
-5.741513
 30
0.0
 11
8.3
 21
-2.960461
 31
0.0
  0
LINE
  5
FE
100
AcDbEntity
  8
LY_1
  6
CENTER
 62
    52
100
AcDbLine
 10
5.8
 20
-5.741513
 30
0.0
 11
5.8
 21
-2.960461
 31
0.0
  0
LINE
  5
FF
100
AcDbEntity
  8
LY_1
  6
CENTER
 62
    52
100
AcDbLine
 10
3.3
 20
-5.741513
 30
0.0
 11
3.3
 21
-2.960461
 31
0.0
  0
INSERT
  5
100
100
AcDbEntity
  8
LY_1
  6
ByBlock
 62
    52
100
AcDbBlockReference
  2
MS_1
 10
-2.4
 20
-3.45
 30
0.0
  0
LINE
  5
101
100
AcDbEntity
  8
LY_1
  6
CENTER
 62
    52
100
AcDbLine
 10
-2.4
 20
-5.741513
 30
0.0
 11
-2.4
 21
-2.960461
 31
0.0
  0
INSERT
  5
102
100
AcDbEntity
  8
LY_1
  6
ByBlock
 62
    52
100
AcDbBlockReference
  2
MS_1
 10
-4.9
 20
-3.45
 30
0.0
  0
LINE
  5
103
100
AcDbEntity
  8
LY_1
  6
CENTER
 62
    52
100
AcDbLine
 10
-4.9
 20
-5.741513
 30
0.0
 11
-4.9
 21
-2.960461
 31
0.0
  0
LINE
  5
104
100
AcDbEntity
  8
LY_1
  6
CENTER
 62
    52
100
AcDbLine
 10
-7.4
 20
-5.741513
 30
0.0
 11
-7.4
 21
-2.960461
 31
0.0
  0
LINE
  5
105
100
AcDbEntity
  8
LY_1
  6
CONTINUOUS
 62
    42
100
AcDbLine
 10
-9.25
 20
-2.15
 30
0.0
 11
-11.0
 21
-2.15
 31
0.0
  0
LINE
  5
106
100
AcDbEntity
  8
LY_1
  6
CONTINUOUS
 62
    42
100
AcDbLine
 10
-9.25
 20
2.15
 30
0.0
 11
-11.0
 21
2.15
 31
0.0
  0
LINE
  5
107
100
AcDbEntity
  8
LY_1
  6
CONTINUOUS
 62
    42
100
AcDbLine
 10
-11.0
 20
-2.15
 30
0.0
 11
-11.0
 21
2.15
 31
0.0
  0
LINE
  5
108
100
AcDbEntity
  8
LY_1
  6
CONTINUOUS
 62
    42
100
AcDbLine
 10
-9.25
 20
-2.15
 30
0.0
 11
-9.25
 21
2.15
 31
0.0
  0
INSERT
  5
109
100
AcDbEntity
  8
LY_1
  6
ByBlock
 62
    52
100
AcDbBlockReference
  2
MS_1
 10
-7.4
 20
-3.45
 30
0.0
  0
LINE
  5
10A
100
AcDbEntity
  8
LY_1
  6
CENTER
 62
    52
100
AcDbLine
 10
0.0
 20
-6.330202
 30
0.0
 11
0.0
 21
3.517942
 31
0.0
  0
LINE
  5
10B
100
AcDbEntity
  8
LY_1
  6
CENTER
 62
    52
100
AcDbLine
 10
11.779155
 20
0.0
 30
0.0
 11
-11.584019
 21
0.0
 31
0.0
  0
MTEXT
  5
10C
100
AcDbEntity
  8
LY_1
  6
CONTINUOUS
 62
   230
100
AcDbMText
 10
-14.652828
 20
-17.078824
 30
0.0
 40
0.5
 41
0.0
 71
     1
 72
     1
  1
\W1.179394;\A1;Jul. 2019  ayc106110-pad.dxf  (C)Panasonic Corporation 2019
  0
LINE
  5
10D
100
AcDbEntity
  8
LY_1
  6
CONTINUOUS
 62
    52
100
AcDbLine
 10
-16.5
 20
13.448653
 30
0.0
 11
16.5
 21
13.448653
 31
0.0
  0
MTEXT
  5
10E
100
AcDbEntity
  8
LY_1
  6
CONTINUOUS
 62
   230
100
AcDbMText
 10
-4.258379
 20
14.602992
 30
0.0
 40
0.8
 41
0.0
 71
     1
 72
     1
  1
\W1.209677;\A1;(Top view)
  0
MTEXT
  5
10F
100
AcDbEntity
  8
LY_1
  6
CONTINUOUS
 62
   230
100
AcDbMText
 10
-15.817749
 20
15.795917
 30
0.0
 40
0.8
 41
0.0
 71
     1
 72
     1
  1
\W1.071429;\A1;Recommended mounting pattern on PC board
  0
ENDSEC
  0
SECTION
  2
OBJECTS
  0
DICTIONARY
  5
19
100
AcDbDictionary
  3
ACAD_GROUP
350
1A
  3
ACAD_MLINESTYLE
350
1B
  0
DICTIONARY
  5
1A
102
{ACAD_REACTORS
330
19
102
}
100
AcDbDictionary
  0
DICTIONARY
  5
1B
102
{ACAD_REACTORS
330
19
102
}
100
AcDbDictionary
  3
STANDARD
350
1C
  0
MLINESTYLE
  5
1C
102
{ACAD_REACTORS
330
1B
102
}
100
AcDbMlineStyle
  2
Standard
 70
     0
  3

 62
     0
 51
90.0
 52
90.0
 71
     2
 49
0.5
 62
   256
  6
ByLayer
 49
-0.5
 62
   256
  6
ByLayer
  0
ENDSEC
  0
EOF
