  0
SECTION
  2
HEADER
  9
$ACADVER
  1
AC1009
  9
$DWGCODEPAGE
  3
dos932
  9
$INSBASE
 10
0.0
 20
0.0
 30
0.0
  9
$EXTMIN
 10
-16.5
 20
-12.703824
 30
0.0
  9
$EXTMAX
 10
16.5
 20
15.995917
 30
0.0
  9
$LIMMIN
 10
-29.7
 20
-21.0
  9
$LIMMAX
 10
29.7
 20
21.0
  9
$ORTHOMODE
 70
     0
  9
$REGENMODE
 70
     1
  9
$FILLMODE
 70
     1
  9
$QTEXTMODE
 70
     0
  9
$MIRRTEXT
 70
     1
  9
$DRAGMODE
 70
     2
  9
$LTSCALE
 40
1.0
  9
$OSMODE
 70
     0
  9
$ATTMODE
 70
     1
  9
$TEXTSIZE
 40
4.16718
  9
$TRACEWID
 40
0.05
  9
$TEXTSTYLE
  7
MX_NOTE_STANDARD
  9
$CLAYER
  8
LY_1
  9
$CELTYPE
  6
CONTINUOUS
  9
$CECOLOR
 62
   256
  9
$DIMSCALE
 40
1.0
  9
$DIMASZ
 40
2.5
  9
$DIMEXO
 40
0.0
  9
$DIMDLI
 40
3.75
  9
$DIMRND
 40
0.0
  9
$DIMDLE
 40
0.0
  9
$DIMEXE
 40
1.2
  9
$DIMTP
 40
0.0
  9
$DIMTM
 40
0.0
  9
$DIMTXT
 40
2.54
  9
$DIMCEN
 40
2.5
  9
$DIMTSZ
 40
0.0
  9
$DIMTOL
 70
     0
  9
$DIMLIM
 70
     0
  9
$DIMTIH
 70
     0
  9
$DIMTOH
 70
     0
  9
$DIMSE1
 70
     0
  9
$DIMSE2
 70
     0
  9
$DIMTAD
 70
     1
  9
$DIMZIN
 70
     8
  9
$DIMBLK
  1

  9
$DIMASO
 70
     1
  9
$DIMSHO
 70
     1
  9
$DIMPOST
  1

  9
$DIMAPOST
  1

  9
$DIMALT
 70
     0
  9
$DIMALTD
 70
     4
  9
$DIMALTF
 40
0.03937
  9
$DIMLFAC
 40
1.0
  9
$DIMTOFL
 70
     1
  9
$DIMTVP
 40
0.0
  9
$DIMTIX
 70
     0
  9
$DIMSOXD
 70
     0
  9
$DIMSAH
 70
     1
  9
$DIMBLK1
  1
_OPEN30
  9
$DIMBLK2
  1
_OPEN30
  9
$DIMSTYLE
  2
MXDIMSTYLE
  9
$DIMCLRD
 70
     0
  9
$DIMCLRE
 70
     0
  9
$DIMCLRT
 70
     0
  9
$DIMTFAC
 40
1.0
  9
$DIMGAP
 40
0.2
  9
$LUNITS
 70
     2
  9
$LUPREC
 70
     4
  9
$AXISMODE
 70
     0
  9
$AXISUNIT
 10
0.0
 20
0.0
  9
$SKETCHINC
 40
0.1
  9
$FILLETRAD
 40
0.0
  9
$AUNITS
 70
     0
  9
$AUPREC
 70
     0
  9
$MENU
  1
acad
  9
$ELEVATION
 40
0.0
  9
$PELEVATION
 40
0.0
  9
$THICKNESS
 40
0.0
  9
$LIMCHECK
 70
     0
  9
$BLIPMODE
 70
     1
  9
$CHAMFERA
 40
0.0
  9
$CHAMFERB
 40
0.0
  9
$SKPOLY
 70
     0
  9
$TDCREATE
 40
2456925.581319444
  9
$TDUPDATE
 40
2456925.581319444
  9
$TDINDWG
 40
0.0000000000
  9
$TDUSRTIMER
 40
0.0000000000
  9
$USRTIMER
 70
     1
  9
$ANGBASE
 50
0.0
  9
$ANGDIR
 70
     0
  9
$PDMODE
 70
     0
  9
$PDSIZE
 40
0.0
  9
$PLINEWID
 40
0.0
  9
$COORDS
 70
     1
  9
$SPLFRAME
 70
     0
  9
$SPLINETYPE
 70
     6
  9
$SPLINESEGS
 70
     8
  9
$ATTDIA
 70
     0
  9
$ATTREQ
 70
     1
  9
$HANDLING
 70
     1
  9
$HANDSEED
  5
119
  9
$SURFTAB1
 70
     6
  9
$SURFTAB2
 70
     6
  9
$SURFTYPE
 70
     6
  9
$SURFU
 70
     6
  9
$SURFV
 70
     6
  9
$UCSNAME
  2

  9
$UCSORG
 10
0.0
 20
0.0
 30
0.0
  9
$UCSXDIR
 10
1.0
 20
0.0
 30
0.0
  9
$UCSYDIR
 10
0.0
 20
1.0
 30
0.0
  9
$PUCSNAME
  2

  9
$PUCSORG
 10
0.0
 20
0.0
 30
0.0
  9
$PUCSXDIR
 10
1.0
 20
0.0
 30
0.0
  9
$PUCSYDIR
 10
0.0
 20
1.0
 30
0.0
  9
$USERI1
 70
     0
  9
$USERI2
 70
     0
  9
$USERI3
 70
     0
  9
$USERI4
 70
     0
  9
$USERI5
 70
     0
  9
$USERR1
 40
0.0
  9
$USERR2
 40
0.0
  9
$USERR3
 40
0.0
  9
$USERR4
 40
0.0
  9
$USERR5
 40
0.0
  9
$WORLDVIEW
 70
     1
  9
$SHADEDGE
 70
     3
  9
$SHADEDIF
 70
    70
  9
$TILEMODE
 70
     1
  9
$MAXACTVP
 70
    16
  9
$PINSBASE
 10
0.0
 20
0.0
 30
0.0
  9
$PLIMCHECK
 70
     0
  9
$PEXTMIN
 10
1.000000E+20
 20
1.000000E+20
 30
1.000000E+20
  9
$PEXTMAX
 10
-1.000000E+20
 20
-1.000000E+20
 30
-1.000000E+20
  9
$PLIMMIN
 10
0.0
 20
0.0
  9
$PLIMMAX
 10
12.0
 20
9.0
  9
$UNITMODE
 70
     0
  9
$VISRETAIN
 70
     0
  9
$PLINEGEN
 70
     1
  9
$PSLTSCALE
 70
     0
  9
$TREEDEPTH
 70
  3020
  0
ENDSEC
  0
SECTION
  2
TABLES
  0
TABLE
  2
VPORT
 70
     1
  0
VPORT
  2
*ACTIVE
 70
     0
 10
0.0
 20
0.0
 11
1.0
 21
1.0
 12
0.0
 22
0.0
 13
0.0
 23
0.0
 14
1.0
 24
1.0
 15
0.0
 25
0.0
 16
0.0
 26
0.0
 36
1.0
 17
0.0
 27
0.0
 37
0.0
 40
42.42
 41
1.732051
 42
50.0
 43
0.0
 44
0.0
 50
0.0
 51
0.0
 71
     0
 72
   100
 73
     1
 74
     1
 75
     0
 76
     0
 77
     0
 78
     0
  0
ENDTAB
  0
TABLE
  2
LTYPE
 70
     2
  0
LTYPE
  2
CONTINUOUS
 70
    64
  3
Solid line
 72
    65
 73
     0
 40
0.0
  0
LTYPE
  2
CENTER
 70
    64
  3
Center ____ _ ____ _ ____ _ ____ _ ____ _ ____
 72
    65
 73
     4
 40
50.8
 49
31.75
 49
-6.35
 49
6.35
 49
-6.35
  0
ENDTAB
  0
TABLE
  2
LAYER
 70
     3
  0
LAYER
  2
0
 70
     0
 62
     7
  6
CONTINUOUS
  0
LAYER
  2
LY_1
 70
     0
 62
     7
  6
CONTINUOUS
  0
LAYER
  2
DEFPOINTS
 70
     0
 62
     7
  6
CONTINUOUS
  0
ENDTAB
  0
TABLE
  2
STYLE
 70
     4
  0
STYLE
  2
MX_NOTE_STANDARD
 70
     0
 40
0.0
 41
1.0
 50
0.0
 71
     0
 42
4.16718
  3
txt.shx
  4
extfont.shx
  0
STYLE
  2
MX_DIMTXSTY_2
 70
     0
 40
0.0
 41
1.2
 50
0.0
 71
     0
 42
4.16718
  3
txt.shx
  4
extfont.shx
  0
STYLE
  2
MX_DIMTXSTY_3
 70
     0
 40
0.0
 41
1.3
 50
0.0
 71
     0
 42
4.16718
  3
txt.shx
  4
extfont.shx
  0
STYLE
  2
MX_DIMTXSTY_4
 70
     0
 40
0.0
 41
1.35
 50
0.0
 71
     0
 42
4.16718
  3
txt.shx
  4
extfont.shx
  0
ENDTAB
  0
TABLE
  2
VIEW
 70
     0
  0
ENDTAB
  0
TABLE
  2
UCS
 70
     0
  0
ENDTAB
  0
TABLE
  2
APPID
 70
     1
  0
APPID
  2
ACAD
 70
     0
  0
ENDTAB
  0
TABLE
  2
DIMSTYLE
 70
     1
  0
DIMSTYLE
  2
MXDIMSTYLE
 70
     0
  3

  4

  5

  6
_OPEN30
  7
_OPEN30
 40
1.0
 41
2.5
 42
0.0
 43
3.75
 44
1.2
 45
0.0
 46
0.0
 47
0.0
 48
0.0
 71
     0
 72
     0
 73
     0
 74
     0
 75
     0
 76
     0
 77
     1
 78
     8
140
2.54
141
2.5
142
0.0
143
0.03937
144
1.0
145
0.0
146
1.0
147
0.2
170
     0
171
     4
172
     1
173
     1
174
     0
175
     0
176
     0
177
     0
178
     0
  0
ENDTAB
  0
ENDSEC
  0
SECTION
  2
BLOCKS
  0
BLOCK
  8
0
  5
27
  2
MS_1
 70
     0
 10
0.0
 20
0.0
 30
0.0
  3
MS_1
  0
LINE
  8
0
  6
CONTINUOUS
 62
     3
  5
28
 10
-0.225
 20
0.83
 30
0.0
 11
0.225
 21
0.83
 31
0.0
  0
LINE
  8
0
  6
CONTINUOUS
 62
     3
  5
29
 10
-0.225
 20
-0.83
 30
0.0
 11
0.225
 21
-0.83
 31
0.0
  0
LINE
  8
0
  6
CONTINUOUS
 62
     3
  5
2A
 10
-0.225
 20
-0.3
 30
0.0
 11
0.225
 21
-0.3
 31
0.0
  0
LINE
  8
0
  6
CONTINUOUS
 62
     3
  5
2B
 10
-0.225
 20
0.3
 30
0.0
 11
0.225
 21
0.3
 31
0.0
  0
LINE
  8
0
  6
CONTINUOUS
 62
     3
  5
2C
 10
-0.225
 20
0.83
 30
0.0
 11
-0.225
 21
0.3
 31
0.0
  0
LINE
  8
0
  6
CONTINUOUS
 62
     3
  5
2D
 10
0.225
 20
0.83
 30
0.0
 11
0.225
 21
0.3
 31
0.0
  0
LINE
  8
0
  6
CONTINUOUS
 62
     3
  5
2E
 10
0.225
 20
-0.83
 30
0.0
 11
0.225
 21
-0.3
 31
0.0
  0
LINE
  8
0
  6
CONTINUOUS
 62
     3
  5
2F
 10
-0.225
 20
-0.83
 30
0.0
 11
-0.225
 21
-0.3
 31
0.0
  0
POINT
  8
0
  6
CONTINUOUS
 62
   170
  5
30
 10
0.225
 20
0.83
 30
0.0
  0
POINT
  8
0
  6
CONTINUOUS
 62
   170
  5
31
 10
-0.225
 20
0.83
 30
0.0
  0
POINT
  8
0
  6
CONTINUOUS
 62
   170
  5
32
 10
0.225
 20
0.3
 30
0.0
  0
POINT
  8
0
  6
CONTINUOUS
 62
   170
  5
33
 10
-0.225
 20
0.3
 30
0.0
  0
POINT
  8
0
  6
CONTINUOUS
 62
   170
  5
34
 10
0.225
 20
-0.83
 30
0.0
  0
POINT
  8
0
  6
CONTINUOUS
 62
   170
  5
35
 10
-0.225
 20
-0.83
 30
0.0
  0
POINT
  8
0
  6
CONTINUOUS
 62
   170
  5
36
 10
0.225
 20
-0.3
 30
0.0
  0
POINT
  8
0
  6
CONTINUOUS
 62
   170
  5
37
 10
-0.225
 20
-0.3
 30
0.0
  0
ENDBLK
  8
0
  5
38
  0
BLOCK
  8
0
  5
39
  2
MS_2
 70
     0
 10
0.0
 20
0.0
 30
0.0
  3
MS_2
  0
LINE
  8
0
  6
CONTINUOUS
 62
     3
  5
3A
 10
-0.115
 20
-1.2
 30
0.0
 11
0.115
 21
-1.2
 31
0.0
  0
LINE
  8
0
  6
CONTINUOUS
 62
     3
  5
3B
 10
-0.115
 20
1.2
 30
0.0
 11
0.115
 21
1.2
 31
0.0
  0
LINE
  8
0
  6
CONTINUOUS
 62
     3
  5
3C
 10
-0.115
 20
-0.55
 30
0.0
 11
0.115
 21
-0.55
 31
0.0
  0
LINE
  8
0
  6
CONTINUOUS
 62
     3
  5
3D
 10
0.115
 20
-0.55
 30
0.0
 11
0.115
 21
-1.2
 31
0.0
  0
LINE
  8
0
  6
CONTINUOUS
 62
     3
  5
3E
 10
-0.115
 20
-0.55
 30
0.0
 11
-0.115
 21
-1.2
 31
0.0
  0
LINE
  8
0
  6
CONTINUOUS
 62
     3
  5
3F
 10
-0.115
 20
0.55
 30
0.0
 11
0.115
 21
0.55
 31
0.0
  0
LINE
  8
0
  6
CONTINUOUS
 62
     3
  5
40
 10
-0.115
 20
0.55
 30
0.0
 11
-0.115
 21
1.2
 31
0.0
  0
LINE
  8
0
  6
CONTINUOUS
 62
     3
  5
41
 10
0.115
 20
0.55
 30
0.0
 11
0.115
 21
1.2
 31
0.0
  0
POINT
  8
0
  6
CONTINUOUS
 62
   170
  5
42
 10
0.115
 20
0.55
 30
0.0
  0
POINT
  8
0
  6
CONTINUOUS
 62
   170
  5
43
 10
-0.115
 20
0.55
 30
0.0
  0
POINT
  8
0
  6
CONTINUOUS
 62
   170
  5
44
 10
-0.115
 20
1.2
 30
0.0
  0
POINT
  8
0
  6
CONTINUOUS
 62
   170
  5
45
 10
0.115
 20
1.2
 30
0.0
  0
POINT
  8
0
  6
CONTINUOUS
 62
   170
  5
46
 10
-0.115
 20
-1.2
 30
0.0
  0
POINT
  8
0
  6
CONTINUOUS
 62
   170
  5
47
 10
-0.115
 20
-0.55
 30
0.0
  0
POINT
  8
0
  6
CONTINUOUS
 62
   170
  5
48
 10
0.115
 20
-0.55
 30
0.0
  0
POINT
  8
0
  6
CONTINUOUS
 62
   170
  5
49
 10
0.115
 20
-1.2
 30
0.0
  0
ENDBLK
  8
0
  5
4A
  0
BLOCK
  8
0
  6
BYBLOCK
 62
     0
  5
22
  2
_OPEN30
 70
     2
 10
0.0
 20
0.0
 30
0.0
  3
_OPEN30
  0
LINE
  8
0
  6
BYBLOCK
 62
     0
  5
23
 10
-1.0
 20
0.267949
 30
0.0
 11
0.0
 21
0.0
 31
0.0
  0
LINE
  8
0
  6
BYBLOCK
 62
     0
  5
24
 10
0.0
 20
0.0
 30
0.0
 11
-1.0
 21
-0.267949
 31
0.0
  0
LINE
  8
0
  6
BYBLOCK
 62
     0
  5
25
 10
0.0
 20
0.0
 30
0.0
 11
-1.0
 21
0.0
 31
0.0
  0
ENDBLK
  8
0
  6
BYBLOCK
 62
     0
  5
26
  0
BLOCK
  8
0
  6
BYBLOCK
 62
     0
  5
4E
  2
*D3
 70
     1
 10
0.0
 20
0.0
 30
0.0
  3
*D3
  0
LINE
  8
0
  6
CONTINUOUS
 62
    51
  5
4F
 10
4.0
 20
-4.858572
 30
0.0
 11
-4.0
 21
-4.858572
 31
0.0
  0
LINE
  8
0
  6
CONTINUOUS
 62
    51
  5
50
 10
11.979732
 20
-4.858572
 30
0.0
 11
4.0
 21
-4.858572
 31
0.0
  0
LINE
  8
0
  6
CONTINUOUS
 62
    51
  5
51
 10
4.0
 20
-1.19837
 30
0.0
 11
4.0
 21
-5.358572
 31
0.0
  0
LINE
  8
0
  6
CONTINUOUS
 62
    51
  5
52
 10
-4.0
 20
-1.19837
 30
0.0
 11
-4.0
 21
-5.358572
 31
0.0
  0
LINE
  8
0
  6
CONTINUOUS
 62
    51
  5
53
 10
4.0
 20
-4.858572
 30
0.0
 11
5.27
 21
-4.858572
 31
0.0
  0
LINE
  8
0
  6
CONTINUOUS
 62
    51
  5
54
 10
-4.0
 20
-4.858572
 30
0.0
 11
-5.27
 21
-4.858572
 31
0.0
  0
INSERT
  8
0
  6
CONTINUOUS
 62
    51
  5
5B
  2
_OPEN
 10
4.0
 20
-4.858572
 30
0.0
 41
0.45
 42
0.45
 50
180.0
 43
0.45
  0
INSERT
  8
0
  6
CONTINUOUS
 62
    51
  5
5C
  2
_OPEN
 10
-4.0
 20
-4.858572
 30
0.0
 41
0.45
 42
0.45
 43
0.45
  0
TEXT
  8
0
  6
CONTINUOUS
 62
    51
  5
5E
 10
4.398559
 20
-4.658572
 30
0.0
 40
0.7
  1
8.00+/-0.05
 41
1.018519
  7
MX_DIMTXSTY_2
 11
4.398559
 21
-4.308572
 31
0.0
 73
     2
  0
POINT
  8
DEFPOINTS
  6
CONTINUOUS
 62
     0
  5
5F
 10
4.0
 20
-1.19837
 30
0.0
  0
POINT
  8
DEFPOINTS
  6
CONTINUOUS
 62
     0
  5
60
 10
-4.0
 20
-1.19837
 30
0.0
  0
POINT
  8
DEFPOINTS
  6
CONTINUOUS
 62
     0
  5
61
 10
-4.0
 20
-4.858572
 30
0.0
  0
ENDBLK
  8
0
  6
BYBLOCK
 62
     0
  5
62
  0
BLOCK
  8
0
  6
BYBLOCK
 62
     0
  5
56
  2
_OPEN
 70
     2
 10
0.0
 20
0.0
 30
0.0
  3
_OPEN
  0
LINE
  8
0
  6
BYBLOCK
 62
     0
  5
57
 10
-1.0
 20
0.166667
 30
0.0
 11
0.0
 21
0.0
 31
0.0
  0
LINE
  8
0
  6
BYBLOCK
 62
     0
  5
58
 10
0.0
 20
0.0
 30
0.0
 11
-1.0
 21
-0.166667
 31
0.0
  0
LINE
  8
0
  6
BYBLOCK
 62
     0
  5
59
 10
0.0
 20
0.0
 30
0.0
 11
-1.0
 21
0.0
 31
0.0
  0
ENDBLK
  8
0
  6
BYBLOCK
 62
     0
  5
5A
  0
BLOCK
  8
0
  6
BYBLOCK
 62
     0
  5
65
  2
*D5
 70
     1
 10
0.0
 20
0.0
 30
0.0
  3
*D5
  0
LINE
  8
0
  6
CONTINUOUS
 62
    51
  5
66
 10
-3.2
 20
7.322047
 30
0.0
 11
3.2
 21
7.322047
 31
0.0
  0
LINE
  8
0
  6
CONTINUOUS
 62
    51
  5
67
 10
3.2
 20
7.322047
 30
0.0
 11
11.225135
 21
7.322047
 31
0.0
  0
LINE
  8
0
  6
CONTINUOUS
 62
    51
  5
68
 10
-3.2
 20
1.45
 30
0.0
 11
-3.2
 21
7.822047
 31
0.0
  0
LINE
  8
0
  6
CONTINUOUS
 62
    51
  5
69
 10
3.2
 20
1.45
 30
0.0
 11
3.2
 21
7.822047
 31
0.0
  0
LINE
  8
0
  6
CONTINUOUS
 62
    51
  5
6A
 10
-3.2
 20
7.322047
 30
0.0
 11
-4.47
 21
7.322047
 31
0.0
  0
LINE
  8
0
  6
CONTINUOUS
 62
    51
  5
6B
 10
3.2
 20
7.322047
 30
0.0
 11
4.47
 21
7.322047
 31
0.0
  0
INSERT
  8
0
  6
CONTINUOUS
 62
    51
  5
6C
  2
_OPEN
 10
-3.2
 20
7.322047
 30
0.0
 41
0.45
 42
0.45
 43
0.45
  0
INSERT
  8
0
  6
CONTINUOUS
 62
    51
  5
6D
  2
_OPEN
 10
3.2
 20
7.322047
 30
0.0
 41
0.45
 42
0.45
 50
180.0
 43
0.45
  0
TEXT
  8
0
  6
CONTINUOUS
 62
    51
  5
6E
 10
3.641802
 20
7.522047
 30
0.0
 40
0.7
  1
6.40+/-0.05
  7
MX_DIMTXSTY_2
 11
3.641802
 21
7.872047
 31
0.0
 73
     2
  0
POINT
  8
DEFPOINTS
  6
CONTINUOUS
 62
     0
  5
6F
 10
-3.2
 20
1.45
 30
0.0
  0
POINT
  8
DEFPOINTS
  6
CONTINUOUS
 62
     0
  5
70
 10
3.2
 20
1.45
 30
0.0
  0
POINT
  8
DEFPOINTS
  6
CONTINUOUS
 62
     0
  5
71
 10
3.2
 20
7.322047
 30
0.0
  0
ENDBLK
  8
0
  6
BYBLOCK
 62
     0
  5
72
  0
BLOCK
  8
0
  6
BYBLOCK
 62
     0
  5
81
  2
*D6
 70
     1
 10
0.0
 20
0.0
 30
0.0
  3
*D6
  0
LINE
  8
0
  6
CONTINUOUS
 62
    51
  5
82
 10
15.525927
 20
1.2
 30
0.0
 11
15.525927
 21
-1.2
 31
0.0
  0
LINE
  8
0
  6
CONTINUOUS
 62
    51
  5
83
 10
15.525927
 20
9.05828
 30
0.0
 11
15.525927
 21
1.2
 31
0.0
  0
LINE
  8
0
  6
CONTINUOUS
 62
    51
  5
84
 10
3.315
 20
1.2
 30
0.0
 11
16.025927
 21
1.2
 31
0.0
  0
LINE
  8
0
  6
CONTINUOUS
 62
    51
  5
85
 10
3.315
 20
-1.2
 30
0.0
 11
16.025927
 21
-1.2
 31
0.0
  0
LINE
  8
0
  6
CONTINUOUS
 62
    51
  5
86
 10
15.525927
 20
1.2
 30
0.0
 11
15.525927
 21
2.47
 31
0.0
  0
LINE
  8
0
  6
CONTINUOUS
 62
    51
  5
87
 10
15.525927
 20
-1.2
 30
0.0
 11
15.525927
 21
-2.47
 31
0.0
  0
INSERT
  8
0
  6
CONTINUOUS
 62
    51
  5
88
  2
_OPEN
 10
15.525927
 20
1.2
 30
0.0
 41
0.45
 42
0.45
 50
270.0
 43
0.45
  0
INSERT
  8
0
  6
CONTINUOUS
 62
    51
  5
89
  2
_OPEN
 10
15.525927
 20
-1.2
 30
0.0
 41
0.45
 42
0.45
 50
90.0
 43
0.45
  0
TEXT
  8
0
  6
CONTINUOUS
 62
    51
  5
8A
 10
15.325927
 20
1.474946
 30
0.0
 40
0.7
  1
2.40+/-0.03
 50
90.0
  7
MX_DIMTXSTY_2
 11
14.975927
 21
1.474946
 31
0.0
 73
     2
  0
POINT
  8
DEFPOINTS
  6
CONTINUOUS
 62
     0
  5
8B
 10
3.315
 20
1.2
 30
0.0
  0
POINT
  8
DEFPOINTS
  6
CONTINUOUS
 62
     0
  5
8C
 10
3.315
 20
-1.2
 30
0.0
  0
POINT
  8
DEFPOINTS
  6
CONTINUOUS
 62
     0
  5
8D
 10
15.525927
 20
-1.2
 30
0.0
  0
ENDBLK
  8
0
  6
BYBLOCK
 62
     0
  5
8E
  0
BLOCK
  8
0
  6
BYBLOCK
 62
     0
  5
91
  2
*D7
 70
     1
 10
0.0
 20
0.0
 30
0.0
  3
*D7
  0
LINE
  8
0
  6
CONTINUOUS
 62
    51
  5
92
 10
14.025927
 20
0.55
 30
0.0
 11
14.025927
 21
-0.55
 31
0.0
  0
LINE
  8
0
  6
CONTINUOUS
 62
    51
  5
93
 10
14.025927
 20
9.05828
 30
0.0
 11
14.025927
 21
0.55
 31
0.0
  0
LINE
  8
0
  6
CONTINUOUS
 62
    51
  5
94
 10
3.315
 20
0.55
 30
0.0
 11
14.525927
 21
0.55
 31
0.0
  0
LINE
  8
0
  6
CONTINUOUS
 62
    51
  5
95
 10
3.315
 20
-0.55
 30
0.0
 11
14.525927
 21
-0.55
 31
0.0
  0
LINE
  8
0
  6
CONTINUOUS
 62
    51
  5
96
 10
14.025927
 20
0.55
 30
0.0
 11
14.025927
 21
1.82
 31
0.0
  0
LINE
  8
0
  6
CONTINUOUS
 62
    51
  5
97
 10
14.025927
 20
-0.55
 30
0.0
 11
14.025927
 21
-1.82
 31
0.0
  0
INSERT
  8
0
  6
CONTINUOUS
 62
    51
  5
98
  2
_OPEN
 10
14.025927
 20
0.55
 30
0.0
 41
0.45
 42
0.45
 50
270.0
 43
0.45
  0
INSERT
  8
0
  6
CONTINUOUS
 62
    51
  5
99
  2
_OPEN
 10
14.025927
 20
-0.55
 30
0.0
 41
0.45
 42
0.45
 50
90.0
 43
0.45
  0
TEXT
  8
0
  6
CONTINUOUS
 62
    51
  5
9B
 10
13.825927
 20
1.474418
 30
0.0
 40
0.7
  1
1.10+/-0.03
 50
90.0
 41
0.995475
  7
MX_DIMTXSTY_3
 11
13.475927
 21
1.474418
 31
0.0
 73
     2
  0
POINT
  8
DEFPOINTS
  6
CONTINUOUS
 62
     0
  5
9C
 10
3.315
 20
0.55
 30
0.0
  0
POINT
  8
DEFPOINTS
  6
CONTINUOUS
 62
     0
  5
9D
 10
3.315
 20
-0.55
 30
0.0
  0
POINT
  8
DEFPOINTS
  6
CONTINUOUS
 62
     0
  5
9E
 10
14.025927
 20
-0.55
 30
0.0
  0
ENDBLK
  8
0
  6
BYBLOCK
 62
     0
  5
9F
  0
BLOCK
  8
0
  6
BYBLOCK
 62
     0
  5
A2
  2
*D8
 70
     1
 10
0.0
 20
0.0
 30
0.0
  3
*D8
  0
LINE
  8
0
  6
CONTINUOUS
 62
    51
  5
A3
 10
12.525927
 20
1.2
 30
0.0
 11
12.525927
 21
0.55
 31
0.0
  0
LINE
  8
0
  6
CONTINUOUS
 62
    51
  5
A4
 10
12.525927
 20
5.55828
 30
0.0
 11
12.525927
 21
1.2
 31
0.0
  0
LINE
  8
0
  6
CONTINUOUS
 62
    51
  5
A5
 10
3.315
 20
1.2
 30
0.0
 11
13.025927
 21
1.2
 31
0.0
  0
LINE
  8
0
  6
CONTINUOUS
 62
    51
  5
A6
 10
3.315
 20
0.55
 30
0.0
 11
13.025927
 21
0.55
 31
0.0
  0
LINE
  8
0
  6
CONTINUOUS
 62
    51
  5
A7
 10
12.525927
 20
1.2
 30
0.0
 11
12.525927
 21
2.47
 31
0.0
  0
LINE
  8
0
  6
CONTINUOUS
 62
    51
  5
A8
 10
12.525927
 20
0.55
 30
0.0
 11
12.525927
 21
-0.72
 31
0.0
  0
INSERT
  8
0
  6
CONTINUOUS
 62
    51
  5
A9
  2
_OPEN
 10
12.525927
 20
1.2
 30
0.0
 41
0.45
 42
0.45
 50
270.0
 43
0.45
  0
INSERT
  8
0
  6
CONTINUOUS
 62
    51
  5
AA
  2
_OPEN
 10
12.525927
 20
0.55
 30
0.0
 41
0.45
 42
0.45
 50
90.0
 43
0.45
  0
TEXT
  8
0
  6
CONTINUOUS
 62
    51
  5
AC
 10
12.325927
 20
1.750049
 30
0.0
 40
0.7
  1
(0.65)
 50
90.0
 41
0.987654
  7
MX_DIMTXSTY_4
 11
11.975927
 21
1.750049
 31
0.0
 73
     2
  0
POINT
  8
DEFPOINTS
  6
CONTINUOUS
 62
     0
  5
AD
 10
3.315
 20
1.2
 30
0.0
  0
POINT
  8
DEFPOINTS
  6
CONTINUOUS
 62
     0
  5
AE
 10
3.315
 20
0.55
 30
0.0
  0
POINT
  8
DEFPOINTS
  6
CONTINUOUS
 62
     0
  5
AF
 10
12.525927
 20
0.55
 30
0.0
  0
ENDBLK
  8
0
  6
BYBLOCK
 62
     0
  5
B0
  0
BLOCK
  8
0
  6
BYBLOCK
 62
     0
  5
B3
  2
*D9
 70
     1
 10
0.0
 20
0.0
 30
0.0
  3
*D9
  0
LINE
  8
0
  6
CONTINUOUS
 62
    51
  5
B4
 10
-10.225
 20
-0.83
 30
0.0
 11
-10.225
 21
0.83
 31
0.0
  0
LINE
  8
0
  6
CONTINUOUS
 62
    51
  5
B5
 10
-10.225
 20
0.83
 30
0.0
 11
-10.225
 21
8.724943
 31
0.0
  0
LINE
  8
0
  6
CONTINUOUS
 62
    51
  5
B6
 10
-4.225
 20
-0.83
 30
0.0
 11
-10.725
 21
-0.83
 31
0.0
  0
LINE
  8
0
  6
CONTINUOUS
 62
    51
  5
B7
 10
-4.225
 20
0.83
 30
0.0
 11
-10.725
 21
0.83
 31
0.0
  0
LINE
  8
0
  6
CONTINUOUS
 62
    51
  5
B8
 10
-10.225
 20
-0.83
 30
0.0
 11
-10.225
 21
-2.1
 31
0.0
  0
LINE
  8
0
  6
CONTINUOUS
 62
    51
  5
B9
 10
-10.225
 20
0.83
 30
0.0
 11
-10.225
 21
2.1
 31
0.0
  0
INSERT
  8
0
  6
CONTINUOUS
 62
    51
  5
BA
  2
_OPEN
 10
-10.225
 20
-0.83
 30
0.0
 41
0.45
 42
0.45
 50
90.0
 43
0.45
  0
INSERT
  8
0
  6
CONTINUOUS
 62
    51
  5
BB
  2
_OPEN
 10
-10.225
 20
0.83
 30
0.0
 41
0.45
 42
0.45
 50
270.0
 43
0.45
  0
TEXT
  8
0
  6
CONTINUOUS
 62
    51
  5
BC
 10
-10.425
 20
1.143769
 30
0.0
 40
0.7
  1
1.66+/-0.03
 50
90.0
 41
1.018519
  7
MX_DIMTXSTY_2
 11
-10.775
 21
1.143769
 31
0.0
 73
     2
  0
POINT
  8
DEFPOINTS
  6
CONTINUOUS
 62
     0
  5
BD
 10
-4.225
 20
-0.83
 30
0.0
  0
POINT
  8
DEFPOINTS
  6
CONTINUOUS
 62
     0
  5
BE
 10
-4.225
 20
0.83
 30
0.0
  0
POINT
  8
DEFPOINTS
  6
CONTINUOUS
 62
     0
  5
BF
 10
-10.225
 20
0.83
 30
0.0
  0
ENDBLK
  8
0
  6
BYBLOCK
 62
     0
  5
C0
  0
BLOCK
  8
0
  6
BYBLOCK
 62
     0
  5
C3
  2
*D10
 70
     1
 10
0.0
 20
0.0
 30
0.0
  3
*D10
  0
LINE
  8
0
  6
CONTINUOUS
 62
    51
  5
C4
 10
-8.725
 20
-0.3
 30
0.0
 11
-8.725
 21
0.3
 31
0.0
  0
LINE
  8
0
  6
CONTINUOUS
 62
    51
  5
C5
 10
-8.725
 20
0.3
 30
0.0
 11
-8.725
 21
8.724943
 31
0.0
  0
LINE
  8
0
  6
CONTINUOUS
 62
    51
  5
C6
 10
-4.225
 20
-0.3
 30
0.0
 11
-9.225
 21
-0.3
 31
0.0
  0
LINE
  8
0
  6
CONTINUOUS
 62
    51
  5
C7
 10
-4.225
 20
0.3
 30
0.0
 11
-9.225
 21
0.3
 31
0.0
  0
LINE
  8
0
  6
CONTINUOUS
 62
    51
  5
C8
 10
-8.725
 20
-0.3
 30
0.0
 11
-8.725
 21
-1.57
 31
0.0
  0
LINE
  8
0
  6
CONTINUOUS
 62
    51
  5
C9
 10
-8.725
 20
0.3
 30
0.0
 11
-8.725
 21
1.57
 31
0.0
  0
INSERT
  8
0
  6
CONTINUOUS
 62
    51
  5
CA
  2
_OPEN
 10
-8.725
 20
-0.3
 30
0.0
 41
0.45
 42
0.45
 50
90.0
 43
0.45
  0
INSERT
  8
0
  6
CONTINUOUS
 62
    51
  5
CB
  2
_OPEN
 10
-8.725
 20
0.3
 30
0.0
 41
0.45
 42
0.45
 50
270.0
 43
0.45
  0
TEXT
  8
0
  6
CONTINUOUS
 62
    51
  5
CC
 10
-8.925
 20
1.143769
 30
0.0
 40
0.7
  1
0.60+/-0.03
 50
90.0
 41
1.018519
  7
MX_DIMTXSTY_2
 11
-9.275
 21
1.143769
 31
0.0
 73
     2
  0
POINT
  8
DEFPOINTS
  6
CONTINUOUS
 62
     0
  5
CD
 10
-4.225
 20
-0.3
 30
0.0
  0
POINT
  8
DEFPOINTS
  6
CONTINUOUS
 62
     0
  5
CE
 10
-4.225
 20
0.3
 30
0.0
  0
POINT
  8
DEFPOINTS
  6
CONTINUOUS
 62
     0
  5
CF
 10
-8.725
 20
0.3
 30
0.0
  0
ENDBLK
  8
0
  6
BYBLOCK
 62
     0
  5
D0
  0
BLOCK
  8
0
  6
BYBLOCK
 62
     0
  5
D3
  2
*D11
 70
     1
 10
0.0
 20
0.0
 30
0.0
  3
*D11
  0
LINE
  8
0
  6
CONTINUOUS
 62
    51
  5
D4
 10
-3.775
 20
-3.358572
 30
0.0
 11
-4.225
 21
-3.358572
 31
0.0
  0
LINE
  8
0
  6
CONTINUOUS
 62
    51
  5
D5
 10
11.979732
 20
-3.358572
 30
0.0
 11
-3.775
 21
-3.358572
 31
0.0
  0
LINE
  8
0
  6
CONTINUOUS
 62
    51
  5
D6
 10
-3.775
 20
-0.83
 30
0.0
 11
-3.775
 21
-3.858572
 31
0.0
  0
LINE
  8
0
  6
CONTINUOUS
 62
    51
  5
D7
 10
-4.225
 20
-0.83
 30
0.0
 11
-4.225
 21
-3.858572
 31
0.0
  0
LINE
  8
0
  6
CONTINUOUS
 62
    51
  5
D8
 10
-3.775
 20
-3.358572
 30
0.0
 11
-2.505
 21
-3.358572
 31
0.0
  0
LINE
  8
0
  6
CONTINUOUS
 62
    51
  5
D9
 10
-4.225
 20
-3.358572
 30
0.0
 11
-5.495
 21
-3.358572
 31
0.0
  0
INSERT
  8
0
  6
CONTINUOUS
 62
    51
  5
DA
  2
_OPEN
 10
-3.775
 20
-3.358572
 30
0.0
 41
0.45
 42
0.45
 50
180.0
 43
0.45
  0
INSERT
  8
0
  6
CONTINUOUS
 62
    51
  5
DB
  2
_OPEN
 10
-4.225
 20
-3.358572
 30
0.0
 41
0.45
 42
0.45
 43
0.45
  0
TEXT
  8
0
  6
CONTINUOUS
 62
    51
  5
DC
 10
4.396398
 20
-3.158572
 30
0.0
 40
0.7
  1
0.45+/-0.03
  7
MX_DIMTXSTY_2
 11
4.396398
 21
-2.808572
 31
0.0
 73
     2
  0
POINT
  8
DEFPOINTS
  6
CONTINUOUS
 62
     0
  5
DD
 10
-3.775
 20
-0.83
 30
0.0
  0
POINT
  8
DEFPOINTS
  6
CONTINUOUS
 62
     0
  5
DE
 10
-4.225
 20
-0.83
 30
0.0
  0
POINT
  8
DEFPOINTS
  6
CONTINUOUS
 62
     0
  5
DF
 10
-4.225
 20
-3.358572
 30
0.0
  0
ENDBLK
  8
0
  6
BYBLOCK
 62
     0
  5
E0
  0
BLOCK
  8
0
  6
BYBLOCK
 62
     0
  5
E3
  2
*D12
 70
     1
 10
0.0
 20
0.0
 30
0.0
  3
*D12
  0
LINE
  8
0
  6
CONTINUOUS
 62
    51
  5
E4
 10
-3.2
 20
5.822047
 30
0.0
 11
-2.8
 21
5.822047
 31
0.0
  0
LINE
  8
0
  6
CONTINUOUS
 62
    51
  5
E5
 10
-2.8
 20
5.822047
 30
0.0
 11
11.225135
 21
5.822047
 31
0.0
  0
LINE
  8
0
  6
CONTINUOUS
 62
    51
  5
E6
 10
-3.2
 20
1.45
 30
0.0
 11
-3.2
 21
6.322047
 31
0.0
  0
LINE
  8
0
  6
CONTINUOUS
 62
    51
  5
E7
 10
-2.8
 20
1.45
 30
0.0
 11
-2.8
 21
6.322047
 31
0.0
  0
LINE
  8
0
  6
CONTINUOUS
 62
    51
  5
E8
 10
-3.2
 20
5.822047
 30
0.0
 11
-4.47
 21
5.822047
 31
0.0
  0
LINE
  8
0
  6
CONTINUOUS
 62
    51
  5
E9
 10
-2.8
 20
5.822047
 30
0.0
 11
-1.53
 21
5.822047
 31
0.0
  0
INSERT
  8
0
  6
CONTINUOUS
 62
    51
  5
EA
  2
_OPEN
 10
-3.2
 20
5.822047
 30
0.0
 41
0.45
 42
0.45
 43
0.45
  0
INSERT
  8
0
  6
CONTINUOUS
 62
    51
  5
EB
  2
_OPEN
 10
-2.8
 20
5.822047
 30
0.0
 41
0.45
 42
0.45
 50
180.0
 43
0.45
  0
TEXT
  8
0
  6
CONTINUOUS
 62
    51
  5
EC
 10
3.643962
 20
6.022047
 30
0.0
 40
0.7
  1
0.40+/-0.03
 41
1.018519
  7
MX_DIMTXSTY_2
 11
3.643962
 21
6.372047
 31
0.0
 73
     2
  0
POINT
  8
DEFPOINTS
  6
CONTINUOUS
 62
     0
  5
ED
 10
-3.2
 20
1.45
 30
0.0
  0
POINT
  8
DEFPOINTS
  6
CONTINUOUS
 62
     0
  5
EE
 10
-2.8
 20
1.45
 30
0.0
  0
POINT
  8
DEFPOINTS
  6
CONTINUOUS
 62
     0
  5
EF
 10
-2.8
 20
5.822047
 30
0.0
  0
ENDBLK
  8
0
  6
BYBLOCK
 62
     0
  5
F0
  0
BLOCK
  8
0
  6
BYBLOCK
 62
     0
  5
F3
  2
*D13
 70
     1
 10
0.0
 20
0.0
 30
0.0
  3
*D13
  0
LINE
  8
0
  6
CONTINUOUS
 62
    51
  5
F4
 10
-3.315
 20
4.322047
 30
0.0
 11
-3.085
 21
4.322047
 31
0.0
  0
LINE
  8
0
  6
CONTINUOUS
 62
    51
  5
F5
 10
-3.085
 20
4.322047
 30
0.0
 11
11.225135
 21
4.322047
 31
0.0
  0
LINE
  8
0
  6
CONTINUOUS
 62
    51
  5
F6
 10
-3.315
 20
1.2
 30
0.0
 11
-3.315
 21
4.822047
 31
0.0
  0
LINE
  8
0
  6
CONTINUOUS
 62
    51
  5
F7
 10
-3.085
 20
1.2
 30
0.0
 11
-3.085
 21
4.822047
 31
0.0
  0
LINE
  8
0
  6
CONTINUOUS
 62
    51
  5
F8
 10
-3.315
 20
4.322047
 30
0.0
 11
-4.585
 21
4.322047
 31
0.0
  0
LINE
  8
0
  6
CONTINUOUS
 62
    51
  5
F9
 10
-3.085
 20
4.322047
 30
0.0
 11
-1.815
 21
4.322047
 31
0.0
  0
INSERT
  8
0
  6
CONTINUOUS
 62
    51
  5
FA
  2
_OPEN
 10
-3.315
 20
4.322047
 30
0.0
 41
0.45
 42
0.45
 43
0.45
  0
INSERT
  8
0
  6
CONTINUOUS
 62
    51
  5
FB
  2
_OPEN
 10
-3.085
 20
4.322047
 30
0.0
 41
0.45
 42
0.45
 50
180.0
 43
0.45
  0
TEXT
  8
0
  6
CONTINUOUS
 62
    51
  5
FC
 10
3.641801
 20
4.522047
 30
0.0
 40
0.7
  1
0.23+/-0.03
  7
MX_DIMTXSTY_2
 11
3.641801
 21
4.872047
 31
0.0
 73
     2
  0
POINT
  8
DEFPOINTS
  6
CONTINUOUS
 62
     0
  5
FD
 10
-3.315
 20
1.2
 30
0.0
  0
POINT
  8
DEFPOINTS
  6
CONTINUOUS
 62
     0
  5
FE
 10
-3.085
 20
1.2
 30
0.0
  0
POINT
  8
DEFPOINTS
  6
CONTINUOUS
 62
     0
  5
FF
 10
-3.085
 20
4.322047
 30
0.0
  0
ENDBLK
  8
0
  6
BYBLOCK
 62
     0
  5
100
  0
ENDSEC
  0
SECTION
  2
ENTITIES
  0
TEXT
  8
LY_1
  6
CONTINUOUS
 62
   230
  5
4B
 10
-14.655933
 20
-12.578824
 30
0.0
 40
0.5
  1
Nov. 2014  axe634124d-pad.dxf  (C)Panasonic Corporation 2014
 41
1.142132
  7
MX_NOTE_STANDARD
 11
-14.655933
 21
-12.328824
 31
0.0
 73
     2
  0
TEXT
  8
LY_1
  6
CONTINUOUS
 62
   230
  5
4C
 10
-14.655752
 20
-11.578824
 30
0.0
 40
0.5
  1
Panasonic Corporation  Automation Controls Business Division
 41
1.14431
  7
MX_NOTE_STANDARD
 11
-14.655752
 21
-11.328824
 31
0.0
 73
     2
  0
DIMENSION
  8
LY_1
  6
CONTINUOUS
 62
    51
  5
63
  2
*D3
 10
-4.0
 20
-4.858572
 30
0.0
 11
8.129732
 21
-4.858572
 31
0.0
 70
   128
  1
<>+/-0.05
 13
4.0
 23
-1.19837
 33
0.0
 14
-4.0
 24
-1.19837
 34
0.0
  3
MXDIMSTYLE
1001
ACAD
1000
DSTYLE
1002
{
1070
     6
1000
_OPEN
1070
     7
1000
_OPEN
1070
    41
1040
0.45
1070
    44
1040
0.5
1070
    78
1070
     0
1070
   140
1040
0.7
1070
   340
1005
5D
1070
   343
1005
55
1070
   344
1005
55
1002
}
  0
DIMENSION
  8
LY_1
  6
CONTINUOUS
 62
    51
  5
73
  2
*D5
 10
3.2
 20
7.322047
 30
0.0
 11
7.375135
 21
7.322047
 31
0.0
 70
   128
  1
<>+/-0.05
 13
-3.2
 23
1.45
 33
0.0
 14
3.2
 24
1.45
 34
0.0
  3
MXDIMSTYLE
1001
ACAD
1000
DSTYLE
1002
{
1070
     6
1000
_OPEN
1070
     7
1000
_OPEN
1070
    41
1040
0.45
1070
    44
1040
0.5
1070
    78
1070
     0
1070
   140
1040
0.7
1070
   340
1005
5D
1070
   343
1005
55
1070
   344
1005
55
1002
}
  0
INSERT
  8
LY_1
  6
BYBLOCK
 62
    52
  5
74
  2
MS_2
 10
-1.2
 20
0.0
 30
0.0
  0
INSERT
  8
LY_1
  6
BYBLOCK
 62
    52
  5
75
  2
MS_2
 10
-1.6
 20
0.0
 30
0.0
  0
INSERT
  8
LY_1
  6
BYBLOCK
 62
    52
  5
76
  2
MS_2
 10
-0.8
 20
0.0
 30
0.0
  0
INSERT
  8
LY_1
  6
BYBLOCK
 62
    52
  5
77
  2
MS_2
 10
-0.4
 20
0.0
 30
0.0
  0
INSERT
  8
LY_1
  6
BYBLOCK
 62
    52
  5
78
  2
MS_2
 10
0.0
 20
0.0
 30
0.0
  0
INSERT
  8
LY_1
  6
BYBLOCK
 62
    52
  5
79
  2
MS_2
 10
0.4
 20
0.0
 30
0.0
  0
INSERT
  8
LY_1
  6
BYBLOCK
 62
    52
  5
7A
  2
MS_2
 10
0.8
 20
0.0
 30
0.0
  0
INSERT
  8
LY_1
  6
BYBLOCK
 62
    52
  5
7B
  2
MS_2
 10
1.2
 20
0.0
 30
0.0
  0
INSERT
  8
LY_1
  6
BYBLOCK
 62
    52
  5
7C
  2
MS_2
 10
-2.0
 20
0.0
 30
0.0
  0
INSERT
  8
LY_1
  6
BYBLOCK
 62
    52
  5
7D
  2
MS_2
 10
1.6
 20
0.0
 30
0.0
  0
INSERT
  8
LY_1
  6
BYBLOCK
 62
    52
  5
7E
  2
MS_2
 10
2.0
 20
0.0
 30
0.0
  0
INSERT
  8
LY_1
  6
BYBLOCK
 62
    52
  5
7F
  2
MS_2
 10
-2.4
 20
0.0
 30
0.0
  0
DIMENSION
  8
LY_1
  6
CONTINUOUS
 62
    51
  5
8F
  2
*D6
 10
15.525927
 20
-1.2
 30
0.0
 11
15.525927
 21
5.20828
 31
0.0
 70
   128
  1
<>+/-0.03
 13
3.315
 23
1.2
 33
0.0
 14
3.315
 24
-1.2
 34
0.0
 50
90.0
  3
MXDIMSTYLE
1001
ACAD
1000
DSTYLE
1002
{
1070
     6
1000
_OPEN
1070
     7
1000
_OPEN
1070
    41
1040
0.45
1070
    44
1040
0.5
1070
    78
1070
     0
1070
   140
1040
0.7
1070
   340
1005
5D
1070
   343
1005
55
1070
   344
1005
55
1002
}
  0
DIMENSION
  8
LY_1
  6
CONTINUOUS
 62
    51
  5
A0
  2
*D7
 10
14.025927
 20
-0.55
 30
0.0
 11
14.025927
 21
5.20828
 31
0.0
 70
   128
  1
<>+/-0.03
 13
3.315
 23
0.55
 33
0.0
 14
3.315
 24
-0.55
 34
0.0
 50
90.0
  3
MXDIMSTYLE
1001
ACAD
1000
DSTYLE
1002
{
1070
     6
1000
_OPEN
1070
     7
1000
_OPEN
1070
    41
1040
0.45
1070
    44
1040
0.5
1070
    78
1070
     0
1070
   140
1040
0.7
1070
   340
1005
9A
1070
   343
1005
55
1070
   344
1005
55
1002
}
  0
DIMENSION
  8
LY_1
  6
CONTINUOUS
 62
    51
  5
B1
  2
*D8
 10
12.525927
 20
0.55
 30
0.0
 11
12.525927
 21
3.45828
 31
0.0
 70
   128
  1
(<>)
 13
3.315
 23
1.2
 33
0.0
 14
3.315
 24
0.55
 34
0.0
 50
90.0
  3
MXDIMSTYLE
1001
ACAD
1000
DSTYLE
1002
{
1070
     6
1000
_OPEN
1070
     7
1000
_OPEN
1070
    41
1040
0.45
1070
    44
1040
0.5
1070
   140
1040
0.7
1070
   284
1070
     8
1070
   340
1005
AB
1070
   343
1005
55
1070
   344
1005
55
1002
}
  0
DIMENSION
  8
LY_1
  6
CONTINUOUS
 62
    51
  5
C1
  2
*D9
 10
-10.225
 20
0.83
 30
0.0
 11
-10.225
 21
4.874942
 31
0.0
 70
   128
  1
<>+/-0.03
 13
-4.225
 23
-0.83
 33
0.0
 14
-4.225
 24
0.83
 34
0.0
 50
90.0
  3
MXDIMSTYLE
1001
ACAD
1000
DSTYLE
1002
{
1070
     6
1000
_OPEN
1070
     7
1000
_OPEN
1070
    41
1040
0.45
1070
    44
1040
0.5
1070
   140
1040
0.7
1070
   284
1070
     8
1070
   340
1005
5D
1070
   343
1005
55
1070
   344
1005
55
1002
}
  0
DIMENSION
  8
LY_1
  6
CONTINUOUS
 62
    51
  5
D1
  2
*D10
 10
-8.725
 20
0.3
 30
0.0
 11
-8.725
 21
4.874942
 31
0.0
 70
   128
  1
<>+/-0.03
 13
-4.225
 23
-0.3
 33
0.0
 14
-4.225
 24
0.3
 34
0.0
 50
90.0
  3
MXDIMSTYLE
1001
ACAD
1000
DSTYLE
1002
{
1070
     6
1000
_OPEN
1070
     7
1000
_OPEN
1070
    41
1040
0.45
1070
    44
1040
0.5
1070
    78
1070
     0
1070
   140
1040
0.7
1070
   340
1005
5D
1070
   343
1005
55
1070
   344
1005
55
1002
}
  0
DIMENSION
  8
LY_1
  6
CONTINUOUS
 62
    51
  5
E1
  2
*D11
 10
-4.225
 20
-3.358572
 30
0.0
 11
8.129732
 21
-3.358572
 31
0.0
 70
   128
  1
<>+/-0.03
 13
-3.775
 23
-0.83
 33
0.0
 14
-4.225
 24
-0.83
 34
0.0
  3
MXDIMSTYLE
1001
ACAD
1000
DSTYLE
1002
{
1070
     6
1000
_OPEN
1070
     7
1000
_OPEN
1070
    41
1040
0.45
1070
    44
1040
0.5
1070
   140
1040
0.7
1070
   284
1070
     8
1070
   340
1005
5D
1070
   343
1005
55
1070
   344
1005
55
1002
}
  0
DIMENSION
  8
LY_1
  6
CONTINUOUS
 62
    51
  5
F1
  2
*D12
 10
-2.8
 20
5.822047
 30
0.0
 11
7.375135
 21
5.822047
 31
0.0
 70
   128
  1
<>+/-0.03
 13
-3.2
 23
1.45
 33
0.0
 14
-2.8
 24
1.45
 34
0.0
  3
MXDIMSTYLE
1001
ACAD
1000
DSTYLE
1002
{
1070
     6
1000
_OPEN
1070
     7
1000
_OPEN
1070
    41
1040
0.45
1070
    44
1040
0.5
1070
    78
1070
     0
1070
   140
1040
0.7
1070
   340
1005
5D
1070
   343
1005
55
1070
   344
1005
55
1002
}
  0
DIMENSION
  8
LY_1
  6
CONTINUOUS
 62
    51
  5
101
  2
*D13
 10
-3.085
 20
4.322047
 30
0.0
 11
7.375135
 21
4.322047
 31
0.0
 70
   128
  1
<>+/-0.03
 13
-3.315
 23
1.2
 33
0.0
 14
-3.085
 24
1.2
 34
0.0
  3
MXDIMSTYLE
1001
ACAD
1000
DSTYLE
1002
{
1070
     6
1000
_OPEN
1070
     7
1000
_OPEN
1070
    41
1040
0.45
1070
    44
1040
0.5
1070
   140
1040
0.7
1070
   284
1070
     8
1070
   340
1005
5D
1070
   343
1005
55
1070
   344
1005
55
1002
}
  0
INSERT
  8
LY_1
  6
BYBLOCK
 62
    52
  5
102
  2
MS_1
 10
4.0
 20
0.0
 30
0.0
 42
-1.0
 50
180.0
  0
INSERT
  8
LY_1
  6
BYBLOCK
 62
    52
  5
103
  2
MS_2
 10
3.2
 20
0.0
 30
0.0
  0
INSERT
  8
LY_1
  6
BYBLOCK
 62
    52
  5
104
  2
MS_2
 10
2.8
 20
0.0
 30
0.0
  0
INSERT
  8
LY_1
  6
BYBLOCK
 62
    52
  5
105
  2
MS_2
 10
2.4
 20
0.0
 30
0.0
  0
INSERT
  8
LY_1
  6
BYBLOCK
 62
    52
  5
106
  2
MS_2
 10
-2.8
 20
0.0
 30
0.0
  0
INSERT
  8
LY_1
  6
BYBLOCK
 62
    52
  5
107
  2
MS_2
 10
-3.2
 20
0.0
 30
0.0
  0
INSERT
  8
LY_1
  6
BYBLOCK
 62
    52
  5
108
  2
MS_1
 10
-4.0
 20
0.0
 30
0.0
  0
LINE
  8
LY_1
  6
CENTER
 62
    52
  5
10A
 10
4.0
 20
1.22497
 30
0.0
 11
4.0
 21
-1.198369
 31
0.0
  0
LINE
  8
LY_1
  6
CENTER
 62
    52
  5
10B
 10
-4.0
 20
1.22497
 30
0.0
 11
-4.0
 21
-1.198369
 31
0.0
  0
LINE
  8
LY_1
  6
CENTER
 62
    52
  5
10C
 10
3.2
 20
-0.465254
 30
0.0
 11
3.2
 21
-1.45
 31
0.0
  0
LINE
  8
LY_1
  6
CENTER
 62
    52
  5
10D
 10
3.2
 20
0.465254
 30
0.0
 11
3.2
 21
1.45
 31
0.0
  0
LINE
  8
LY_1
  6
CENTER
 62
    52
  5
10E
 10
-2.8
 20
-0.465254
 30
0.0
 11
-2.8
 21
-1.45
 31
0.0
  0
LINE
  8
LY_1
  6
CENTER
 62
    52
  5
10F
 10
-2.8
 20
0.465254
 30
0.0
 11
-2.8
 21
1.45
 31
0.0
  0
LINE
  8
LY_1
  6
CENTER
 62
    52
  5
110
 10
-3.2
 20
-0.465254
 30
0.0
 11
-3.2
 21
-1.45
 31
0.0
  0
LINE
  8
LY_1
  6
CENTER
 62
    52
  5
111
 10
-3.2
 20
0.465254
 30
0.0
 11
-3.2
 21
1.45
 31
0.0
  0
LINE
  8
LY_1
  6
CENTER
 62
    52
  5
112
 10
0.0
 20
-1.45
 30
0.0
 11
0.0
 21
1.45
 31
0.0
  0
LINE
  8
LY_1
  6
CENTER
 62
    52
  5
113
 10
-4.225
 20
0.0
 30
0.0
 11
4.225
 21
0.0
 31
0.0
  0
LINE
  8
LY_1
  6
CONTINUOUS
 62
    52
  5
114
 10
-16.5
 20
13.448653
 30
0.0
 11
16.5
 21
13.448653
 31
0.0
  0
TEXT
  8
LY_1
  6
CONTINUOUS
 62
   230
  5
115
 10
-4.258379
 20
13.802992
 30
0.0
 40
0.8
  1
(Top view)
 41
1.209677
  7
MX_NOTE_STANDARD
 11
-4.258379
 21
14.202992
 31
0.0
 73
     2
  0
TEXT
  8
LY_1
  6
CONTINUOUS
 62
   230
  5
116
 10
-15.817749
 20
14.995917
 30
0.0
 40
0.8
  1
Recommended mounting pattern on PC board
 41
1.071429
  7
MX_NOTE_STANDARD
 11
-15.817749
 21
15.395917
 31
0.0
 73
     2
  0
ENDSEC
  0
EOF
