  0
SECTION
  2
HEADER
  9
$ACADVER
  1
AC1009
  9
$DWGCODEPAGE
  3
dos932
  9
$INSBASE
 10
0.0
 20
0.0
 30
0.0
  9
$EXTMIN
 10
-16.5
 20
-12.703824
 30
0.0
  9
$EXTMAX
 10
17.02613
 20
15.995917
 30
0.0
  9
$LIMMIN
 10
-29.7
 20
-21.0
  9
$LIMMAX
 10
29.7
 20
21.0
  9
$ORTHOMODE
 70
     0
  9
$REGENMODE
 70
     1
  9
$FILLMODE
 70
     1
  9
$QTEXTMODE
 70
     0
  9
$MIRRTEXT
 70
     1
  9
$DRAGMODE
 70
     2
  9
$LTSCALE
 40
1.0
  9
$OSMODE
 70
     0
  9
$ATTMODE
 70
     1
  9
$TEXTSIZE
 40
4.16718
  9
$TRACEWID
 40
0.05
  9
$TEXTSTYLE
  7
MX_NOTE_STANDARD
  9
$CLAYER
  8
LY_1
  9
$CELTYPE
  6
CONTINUOUS
  9
$CECOLOR
 62
   256
  9
$DIMSCALE
 40
1.0
  9
$DIMASZ
 40
2.5
  9
$DIMEXO
 40
0.0
  9
$DIMDLI
 40
3.75
  9
$DIMRND
 40
0.0
  9
$DIMDLE
 40
0.0
  9
$DIMEXE
 40
1.2
  9
$DIMTP
 40
0.0
  9
$DIMTM
 40
0.0
  9
$DIMTXT
 40
2.54
  9
$DIMCEN
 40
2.5
  9
$DIMTSZ
 40
0.0
  9
$DIMTOL
 70
     0
  9
$DIMLIM
 70
     0
  9
$DIMTIH
 70
     0
  9
$DIMTOH
 70
     0
  9
$DIMSE1
 70
     0
  9
$DIMSE2
 70
     0
  9
$DIMTAD
 70
     1
  9
$DIMZIN
 70
     8
  9
$DIMBLK
  1

  9
$DIMASO
 70
     1
  9
$DIMSHO
 70
     1
  9
$DIMPOST
  1

  9
$DIMAPOST
  1

  9
$DIMALT
 70
     0
  9
$DIMALTD
 70
     4
  9
$DIMALTF
 40
0.03937
  9
$DIMLFAC
 40
1.0
  9
$DIMTOFL
 70
     1
  9
$DIMTVP
 40
0.0
  9
$DIMTIX
 70
     0
  9
$DIMSOXD
 70
     0
  9
$DIMSAH
 70
     1
  9
$DIMBLK1
  1
_OPEN30
  9
$DIMBLK2
  1
_OPEN30
  9
$DIMSTYLE
  2
MXDIMSTYLE
  9
$DIMCLRD
 70
     0
  9
$DIMCLRE
 70
     0
  9
$DIMCLRT
 70
     0
  9
$DIMTFAC
 40
1.0
  9
$DIMGAP
 40
0.2
  9
$LUNITS
 70
     2
  9
$LUPREC
 70
     4
  9
$AXISMODE
 70
     0
  9
$AXISUNIT
 10
0.0
 20
0.0
  9
$SKETCHINC
 40
0.1
  9
$FILLETRAD
 40
0.0
  9
$AUNITS
 70
     0
  9
$AUPREC
 70
     0
  9
$MENU
  1
acad
  9
$ELEVATION
 40
0.0
  9
$PELEVATION
 40
0.0
  9
$THICKNESS
 40
0.0
  9
$LIMCHECK
 70
     0
  9
$BLIPMODE
 70
     1
  9
$CHAMFERA
 40
0.0
  9
$CHAMFERB
 40
0.0
  9
$SKPOLY
 70
     0
  9
$TDCREATE
 40
2457295.597962963
  9
$TDUPDATE
 40
2457295.597962963
  9
$TDINDWG
 40
0.0000000000
  9
$TDUSRTIMER
 40
0.0000000000
  9
$USRTIMER
 70
     1
  9
$ANGBASE
 50
0.0
  9
$ANGDIR
 70
     0
  9
$PDMODE
 70
     0
  9
$PDSIZE
 40
0.0
  9
$PLINEWID
 40
0.0
  9
$COORDS
 70
     1
  9
$SPLFRAME
 70
     0
  9
$SPLINETYPE
 70
     6
  9
$SPLINESEGS
 70
     8
  9
$ATTDIA
 70
     0
  9
$ATTREQ
 70
     1
  9
$HANDLING
 70
     1
  9
$HANDSEED
  5
135
  9
$SURFTAB1
 70
     6
  9
$SURFTAB2
 70
     6
  9
$SURFTYPE
 70
     6
  9
$SURFU
 70
     6
  9
$SURFV
 70
     6
  9
$UCSNAME
  2

  9
$UCSORG
 10
0.0
 20
0.0
 30
0.0
  9
$UCSXDIR
 10
1.0
 20
0.0
 30
0.0
  9
$UCSYDIR
 10
0.0
 20
1.0
 30
0.0
  9
$PUCSNAME
  2

  9
$PUCSORG
 10
0.0
 20
0.0
 30
0.0
  9
$PUCSXDIR
 10
1.0
 20
0.0
 30
0.0
  9
$PUCSYDIR
 10
0.0
 20
1.0
 30
0.0
  9
$USERI1
 70
     0
  9
$USERI2
 70
     0
  9
$USERI3
 70
     0
  9
$USERI4
 70
     0
  9
$USERI5
 70
     0
  9
$USERR1
 40
0.0
  9
$USERR2
 40
0.0
  9
$USERR3
 40
0.0
  9
$USERR4
 40
0.0
  9
$USERR5
 40
0.0
  9
$WORLDVIEW
 70
     1
  9
$SHADEDGE
 70
     3
  9
$SHADEDIF
 70
    70
  9
$TILEMODE
 70
     1
  9
$MAXACTVP
 70
    16
  9
$PINSBASE
 10
0.0
 20
0.0
 30
0.0
  9
$PLIMCHECK
 70
     0
  9
$PEXTMIN
 10
1.000000E+20
 20
1.000000E+20
 30
1.000000E+20
  9
$PEXTMAX
 10
-1.000000E+20
 20
-1.000000E+20
 30
-1.000000E+20
  9
$PLIMMIN
 10
0.0
 20
0.0
  9
$PLIMMAX
 10
12.0
 20
9.0
  9
$UNITMODE
 70
     0
  9
$VISRETAIN
 70
     0
  9
$PLINEGEN
 70
     1
  9
$PSLTSCALE
 70
     0
  9
$TREEDEPTH
 70
  3020
  0
ENDSEC
  0
SECTION
  2
TABLES
  0
TABLE
  2
VPORT
 70
     1
  0
VPORT
  2
*ACTIVE
 70
     0
 10
0.0
 20
0.0
 11
1.0
 21
1.0
 12
0.0
 22
0.0
 13
0.0
 23
0.0
 14
1.0
 24
1.0
 15
0.0
 25
0.0
 16
0.0
 26
0.0
 36
1.0
 17
0.0
 27
0.0
 37
0.0
 40
42.42
 41
1.732051
 42
50.0
 43
0.0
 44
0.0
 50
0.0
 51
0.0
 71
     0
 72
   100
 73
     1
 74
     1
 75
     0
 76
     0
 77
     0
 78
     0
  0
ENDTAB
  0
TABLE
  2
LTYPE
 70
     2
  0
LTYPE
  2
CONTINUOUS
 70
    64
  3
Solid line
 72
    65
 73
     0
 40
0.0
  0
LTYPE
  2
CENTER
 70
    64
  3
Center ____ _ ____ _ ____ _ ____ _ ____ _ ____
 72
    65
 73
     4
 40
50.8
 49
31.75
 49
-6.35
 49
6.35
 49
-6.35
  0
ENDTAB
  0
TABLE
  2
LAYER
 70
     3
  0
LAYER
  2
0
 70
     0
 62
     7
  6
CONTINUOUS
  0
LAYER
  2
LY_1
 70
     0
 62
     7
  6
CONTINUOUS
  0
LAYER
  2
DEFPOINTS
 70
     0
 62
     7
  6
CONTINUOUS
  0
ENDTAB
  0
TABLE
  2
STYLE
 70
     4
  0
STYLE
  2
MX_NOTE_STANDARD
 70
     0
 40
0.0
 41
1.0
 50
0.0
 71
     0
 42
4.16718
  3
txt.shx
  4
extfont.shx
  0
STYLE
  2
MX_DIMTXSTY_2
 70
     0
 40
0.0
 41
1.2
 50
0.0
 71
     0
 42
4.16718
  3
txt.shx
  4
extfont.shx
  0
STYLE
  2
MX_DIMTXSTY_3
 70
     0
 40
0.0
 41
1.3
 50
0.0
 71
     0
 42
4.16718
  3
txt.shx
  4
extfont.shx
  0
STYLE
  2
MX_DIMTXSTY_4
 70
     0
 40
0.0
 41
1.35
 50
0.0
 71
     0
 42
4.16718
  3
txt.shx
  4
extfont.shx
  0
ENDTAB
  0
TABLE
  2
VIEW
 70
     0
  0
ENDTAB
  0
TABLE
  2
UCS
 70
     0
  0
ENDTAB
  0
TABLE
  2
APPID
 70
     1
  0
APPID
  2
ACAD
 70
     0
  0
ENDTAB
  0
TABLE
  2
DIMSTYLE
 70
     1
  0
DIMSTYLE
  2
MXDIMSTYLE
 70
     0
  3

  4

  5

  6
_OPEN30
  7
_OPEN30
 40
1.0
 41
2.5
 42
0.0
 43
3.75
 44
1.2
 45
0.0
 46
0.0
 47
0.0
 48
0.0
 71
     0
 72
     0
 73
     0
 74
     0
 75
     0
 76
     0
 77
     1
 78
     8
140
2.54
141
2.5
142
0.0
143
0.03937
144
1.0
145
0.0
146
1.0
147
0.2
170
     0
171
     4
172
     1
173
     1
174
     0
175
     0
176
     0
177
     0
178
     0
  0
ENDTAB
  0
ENDSEC
  0
SECTION
  2
BLOCKS
  0
BLOCK
  8
0
  5
27
  2
MS_1
 70
     0
 10
0.0
 20
0.0
 30
0.0
  3
MS_1
  0
LINE
  8
0
  6
CONTINUOUS
 62
     3
  5
28
 10
-0.1
 20
-1.2
 30
0.0
 11
0.1
 21
-1.2
 31
0.0
  0
LINE
  8
0
  6
CONTINUOUS
 62
     3
  5
29
 10
-0.1
 20
1.2
 30
0.0
 11
0.1
 21
1.2
 31
0.0
  0
LINE
  8
0
  6
CONTINUOUS
 62
     3
  5
2A
 10
-0.1
 20
-0.55
 30
0.0
 11
0.1
 21
-0.55
 31
0.0
  0
LINE
  8
0
  6
CONTINUOUS
 62
     3
  5
2B
 10
0.1
 20
-0.55
 30
0.0
 11
0.1
 21
-1.2
 31
0.0
  0
LINE
  8
0
  6
CONTINUOUS
 62
     3
  5
2C
 10
-0.1
 20
-0.55
 30
0.0
 11
-0.1
 21
-1.2
 31
0.0
  0
LINE
  8
0
  6
CONTINUOUS
 62
     3
  5
2D
 10
-0.1
 20
0.55
 30
0.0
 11
0.1
 21
0.55
 31
0.0
  0
LINE
  8
0
  6
CONTINUOUS
 62
     3
  5
2E
 10
-0.1
 20
0.55
 30
0.0
 11
-0.1
 21
1.2
 31
0.0
  0
LINE
  8
0
  6
CONTINUOUS
 62
     3
  5
2F
 10
0.1
 20
0.55
 30
0.0
 11
0.1
 21
1.2
 31
0.0
  0
POINT
  8
0
  6
CONTINUOUS
 62
   170
  5
30
 10
0.1
 20
0.55
 30
0.0
  0
POINT
  8
0
  6
CONTINUOUS
 62
   170
  5
31
 10
-0.1
 20
0.55
 30
0.0
  0
POINT
  8
0
  6
CONTINUOUS
 62
   170
  5
32
 10
-0.1
 20
1.2
 30
0.0
  0
POINT
  8
0
  6
CONTINUOUS
 62
   170
  5
33
 10
0.1
 20
1.2
 30
0.0
  0
POINT
  8
0
  6
CONTINUOUS
 62
   170
  5
34
 10
-0.1
 20
-1.2
 30
0.0
  0
POINT
  8
0
  6
CONTINUOUS
 62
   170
  5
35
 10
-0.1
 20
-0.55
 30
0.0
  0
POINT
  8
0
  6
CONTINUOUS
 62
   170
  5
36
 10
0.1
 20
-0.55
 30
0.0
  0
POINT
  8
0
  6
CONTINUOUS
 62
   170
  5
37
 10
0.1
 20
-1.2
 30
0.0
  0
ENDBLK
  8
0
  5
38
  0
BLOCK
  8
0
  5
39
  2
MS_2
 70
     0
 10
0.0
 20
0.0
 30
0.0
  3
MS_2
  0
LINE
  8
0
  6
CONTINUOUS
 62
     3
  5
3A
 10
-0.225
 20
0.83
 30
0.0
 11
0.225
 21
0.83
 31
0.0
  0
LINE
  8
0
  6
CONTINUOUS
 62
     3
  5
3B
 10
-0.225
 20
-0.83
 30
0.0
 11
0.225
 21
-0.83
 31
0.0
  0
LINE
  8
0
  6
CONTINUOUS
 62
     3
  5
3C
 10
-0.225
 20
-0.3
 30
0.0
 11
0.225
 21
-0.3
 31
0.0
  0
LINE
  8
0
  6
CONTINUOUS
 62
     3
  5
3D
 10
-0.225
 20
0.3
 30
0.0
 11
0.225
 21
0.3
 31
0.0
  0
LINE
  8
0
  6
CONTINUOUS
 62
     3
  5
3E
 10
-0.225
 20
0.83
 30
0.0
 11
-0.225
 21
0.3
 31
0.0
  0
LINE
  8
0
  6
CONTINUOUS
 62
     3
  5
3F
 10
0.225
 20
0.83
 30
0.0
 11
0.225
 21
0.3
 31
0.0
  0
LINE
  8
0
  6
CONTINUOUS
 62
     3
  5
40
 10
0.225
 20
-0.83
 30
0.0
 11
0.225
 21
-0.3
 31
0.0
  0
LINE
  8
0
  6
CONTINUOUS
 62
     3
  5
41
 10
-0.225
 20
-0.83
 30
0.0
 11
-0.225
 21
-0.3
 31
0.0
  0
POINT
  8
0
  6
CONTINUOUS
 62
   170
  5
42
 10
0.225
 20
0.83
 30
0.0
  0
POINT
  8
0
  6
CONTINUOUS
 62
   170
  5
43
 10
-0.225
 20
0.83
 30
0.0
  0
POINT
  8
0
  6
CONTINUOUS
 62
   170
  5
44
 10
0.225
 20
0.3
 30
0.0
  0
POINT
  8
0
  6
CONTINUOUS
 62
   170
  5
45
 10
-0.225
 20
0.3
 30
0.0
  0
POINT
  8
0
  6
CONTINUOUS
 62
   170
  5
46
 10
0.225
 20
-0.83
 30
0.0
  0
POINT
  8
0
  6
CONTINUOUS
 62
   170
  5
47
 10
-0.225
 20
-0.83
 30
0.0
  0
POINT
  8
0
  6
CONTINUOUS
 62
   170
  5
48
 10
0.225
 20
-0.3
 30
0.0
  0
POINT
  8
0
  6
CONTINUOUS
 62
   170
  5
49
 10
-0.225
 20
-0.3
 30
0.0
  0
ENDBLK
  8
0
  5
4A
  0
BLOCK
  8
0
  6
BYBLOCK
 62
     0
  5
22
  2
_OPEN30
 70
     2
 10
0.0
 20
0.0
 30
0.0
  3
_OPEN30
  0
LINE
  8
0
  6
BYBLOCK
 62
     0
  5
23
 10
-1.0
 20
0.267949
 30
0.0
 11
0.0
 21
0.0
 31
0.0
  0
LINE
  8
0
  6
BYBLOCK
 62
     0
  5
24
 10
0.0
 20
0.0
 30
0.0
 11
-1.0
 21
-0.267949
 31
0.0
  0
LINE
  8
0
  6
BYBLOCK
 62
     0
  5
25
 10
0.0
 20
0.0
 30
0.0
 11
-1.0
 21
0.0
 31
0.0
  0
ENDBLK
  8
0
  6
BYBLOCK
 62
     0
  5
26
  0
BLOCK
  8
0
  6
BYBLOCK
 62
     0
  5
4D
  2
*D3
 70
     1
 10
0.0
 20
0.0
 30
0.0
  3
*D3
  0
LINE
  8
0
  6
CONTINUOUS
 62
    51
  5
4E
 10
9.275
 20
-5.1
 30
0.0
 11
-9.275
 21
-5.1
 31
0.0
  0
LINE
  8
0
  6
CONTINUOUS
 62
    51
  5
4F
 10
9.275
 20
-0.98
 30
0.0
 11
9.275
 21
-5.6
 31
0.0
  0
LINE
  8
0
  6
CONTINUOUS
 62
    51
  5
50
 10
-9.275
 20
-0.98
 30
0.0
 11
-9.275
 21
-5.6
 31
0.0
  0
INSERT
  8
0
  6
CONTINUOUS
 62
    51
  5
57
  2
_OPEN
 10
9.275
 20
-5.1
 30
0.0
 41
0.45
 42
0.45
 43
0.45
  0
INSERT
  8
0
  6
CONTINUOUS
 62
    51
  5
58
  2
_OPEN
 10
-9.275
 20
-5.1
 30
0.0
 41
0.45
 42
0.45
 50
180.0
 43
0.45
  0
TEXT
  8
0
  6
CONTINUOUS
 62
    51
  5
5A
 10
-4.083333
 20
-4.9
 30
0.0
 40
0.7
  1
18.55+/-0.05
  7
MX_DIMTXSTY_2
 11
-4.083333
 21
-4.55
 31
0.0
 73
     2
  0
POINT
  8
DEFPOINTS
  6
CONTINUOUS
 62
     0
  5
5B
 10
9.275
 20
-0.98
 30
0.0
  0
POINT
  8
DEFPOINTS
  6
CONTINUOUS
 62
     0
  5
5C
 10
-9.275
 20
-0.98
 30
0.0
  0
POINT
  8
DEFPOINTS
  6
CONTINUOUS
 62
     0
  5
5D
 10
-9.275
 20
-5.1
 30
0.0
  0
ENDBLK
  8
0
  6
BYBLOCK
 62
     0
  5
5E
  0
BLOCK
  8
0
  6
BYBLOCK
 62
     0
  5
52
  2
_OPEN
 70
     2
 10
0.0
 20
0.0
 30
0.0
  3
_OPEN
  0
LINE
  8
0
  6
BYBLOCK
 62
     0
  5
53
 10
-1.0
 20
0.166667
 30
0.0
 11
0.0
 21
0.0
 31
0.0
  0
LINE
  8
0
  6
BYBLOCK
 62
     0
  5
54
 10
0.0
 20
0.0
 30
0.0
 11
-1.0
 21
-0.166667
 31
0.0
  0
LINE
  8
0
  6
BYBLOCK
 62
     0
  5
55
 10
0.0
 20
0.0
 30
0.0
 11
-1.0
 21
0.0
 31
0.0
  0
ENDBLK
  8
0
  6
BYBLOCK
 62
     0
  5
56
  0
BLOCK
  8
0
  6
BYBLOCK
 62
     0
  5
61
  2
*D5
 70
     1
 10
0.0
 20
0.0
 30
0.0
  3
*D5
  0
LINE
  8
0
  6
CONTINUOUS
 62
    51
  5
62
 10
-8.575
 20
6.638006
 30
0.0
 11
8.575
 21
6.638006
 31
0.0
  0
LINE
  8
0
  6
CONTINUOUS
 62
    51
  5
63
 10
-8.575
 20
0.45
 30
0.0
 11
-8.575
 21
7.138006
 31
0.0
  0
LINE
  8
0
  6
CONTINUOUS
 62
    51
  5
64
 10
8.575
 20
0.45
 30
0.0
 11
8.575
 21
7.138006
 31
0.0
  0
INSERT
  8
0
  6
CONTINUOUS
 62
    51
  5
65
  2
_OPEN
 10
-8.575
 20
6.638006
 30
0.0
 41
0.45
 42
0.45
 50
180.0
 43
0.45
  0
INSERT
  8
0
  6
CONTINUOUS
 62
    51
  5
66
  2
_OPEN
 10
8.575
 20
6.638006
 30
0.0
 41
0.45
 42
0.45
 43
0.45
  0
TEXT
  8
0
  6
CONTINUOUS
 62
    51
  5
67
 10
-4.079311
 20
6.838006
 30
0.0
 40
0.7
  1
17.15+/-0.05
 41
1.034483
  7
MX_DIMTXSTY_2
 11
-4.079311
 21
7.188006
 31
0.0
 73
     2
  0
POINT
  8
DEFPOINTS
  6
CONTINUOUS
 62
     0
  5
68
 10
-8.575
 20
0.45
 30
0.0
  0
POINT
  8
DEFPOINTS
  6
CONTINUOUS
 62
     0
  5
69
 10
8.575
 20
0.45
 30
0.0
  0
POINT
  8
DEFPOINTS
  6
CONTINUOUS
 62
     0
  5
6A
 10
8.575
 20
6.638006
 30
0.0
  0
ENDBLK
  8
0
  6
BYBLOCK
 62
     0
  5
6B
  0
BLOCK
  8
0
  6
BYBLOCK
 62
     0
  5
8F
  2
*D6
 70
     1
 10
0.0
 20
0.0
 30
0.0
  3
*D6
  0
LINE
  8
0
  6
CONTINUOUS
 62
    51
  5
90
 10
-9.05
 20
-3.6
 30
0.0
 11
-9.5
 21
-3.6
 31
0.0
  0
LINE
  8
0
  6
CONTINUOUS
 62
    51
  5
91
 10
5.831168
 20
-3.6
 30
0.0
 11
-9.05
 21
-3.6
 31
0.0
  0
LINE
  8
0
  6
CONTINUOUS
 62
    51
  5
92
 10
-9.05
 20
-0.83
 30
0.0
 11
-9.05
 21
-4.1
 31
0.0
  0
LINE
  8
0
  6
CONTINUOUS
 62
    51
  5
93
 10
-9.5
 20
-0.83
 30
0.0
 11
-9.5
 21
-4.1
 31
0.0
  0
LINE
  8
0
  6
CONTINUOUS
 62
    51
  5
94
 10
-9.05
 20
-3.6
 30
0.0
 11
-7.78
 21
-3.6
 31
0.0
  0
LINE
  8
0
  6
CONTINUOUS
 62
    51
  5
95
 10
-9.5
 20
-3.6
 30
0.0
 11
-10.77
 21
-3.6
 31
0.0
  0
INSERT
  8
0
  6
CONTINUOUS
 62
    51
  5
96
  2
_OPEN
 10
-9.05
 20
-3.6
 30
0.0
 41
0.45
 42
0.45
 50
180.0
 43
0.45
  0
INSERT
  8
0
  6
CONTINUOUS
 62
    51
  5
97
  2
_OPEN
 10
-9.5
 20
-3.6
 30
0.0
 41
0.45
 42
0.45
 43
0.45
  0
TEXT
  8
0
  6
CONTINUOUS
 62
    51
  5
98
 10
-1.752166
 20
-3.4
 30
0.0
 40
0.7
  1
0.45+/-0.03
  7
MX_DIMTXSTY_2
 11
-1.752166
 21
-3.05
 31
0.0
 73
     2
  0
POINT
  8
DEFPOINTS
  6
CONTINUOUS
 62
     0
  5
99
 10
-9.05
 20
-0.83
 30
0.0
  0
POINT
  8
DEFPOINTS
  6
CONTINUOUS
 62
     0
  5
9A
 10
-9.5
 20
-0.83
 30
0.0
  0
POINT
  8
DEFPOINTS
  6
CONTINUOUS
 62
     0
  5
9B
 10
-9.5
 20
-3.6
 30
0.0
  0
ENDBLK
  8
0
  6
BYBLOCK
 62
     0
  5
9C
  0
BLOCK
  8
0
  6
BYBLOCK
 62
     0
  5
9F
  2
*D7
 70
     1
 10
0.0
 20
0.0
 30
0.0
  3
*D7
  0
LINE
  8
0
  6
CONTINUOUS
 62
    51
  5
A0
 10
16.52613
 20
1.2
 30
0.0
 11
16.52613
 21
-1.2
 31
0.0
  0
LINE
  8
0
  6
CONTINUOUS
 62
    51
  5
A1
 10
16.52613
 20
9.884812
 30
0.0
 11
16.52613
 21
1.2
 31
0.0
  0
LINE
  8
0
  6
CONTINUOUS
 62
    51
  5
A2
 10
8.675
 20
1.2
 30
0.0
 11
17.02613
 21
1.2
 31
0.0
  0
LINE
  8
0
  6
CONTINUOUS
 62
    51
  5
A3
 10
8.675
 20
-1.2
 30
0.0
 11
17.02613
 21
-1.2
 31
0.0
  0
LINE
  8
0
  6
CONTINUOUS
 62
    51
  5
A4
 10
16.52613
 20
1.2
 30
0.0
 11
16.52613
 21
2.47
 31
0.0
  0
LINE
  8
0
  6
CONTINUOUS
 62
    51
  5
A5
 10
16.52613
 20
-1.2
 30
0.0
 11
16.52613
 21
-2.47
 31
0.0
  0
INSERT
  8
0
  6
CONTINUOUS
 62
    51
  5
A6
  2
_OPEN
 10
16.52613
 20
1.2
 30
0.0
 41
0.45
 42
0.45
 50
270.0
 43
0.45
  0
INSERT
  8
0
  6
CONTINUOUS
 62
    51
  5
A7
  2
_OPEN
 10
16.52613
 20
-1.2
 30
0.0
 41
0.45
 42
0.45
 50
90.0
 43
0.45
  0
TEXT
  8
0
  6
CONTINUOUS
 62
    51
  5
A8
 10
16.32613
 20
2.301479
 30
0.0
 40
0.7
  1
2.40+/-0.03
 50
90.0
  7
MX_DIMTXSTY_2
 11
15.97613
 21
2.301479
 31
0.0
 73
     2
  0
POINT
  8
DEFPOINTS
  6
CONTINUOUS
 62
     0
  5
A9
 10
8.675
 20
1.2
 30
0.0
  0
POINT
  8
DEFPOINTS
  6
CONTINUOUS
 62
     0
  5
AA
 10
8.675
 20
-1.2
 30
0.0
  0
POINT
  8
DEFPOINTS
  6
CONTINUOUS
 62
     0
  5
AB
 10
16.52613
 20
-1.2
 30
0.0
  0
ENDBLK
  8
0
  6
BYBLOCK
 62
     0
  5
AC
  0
BLOCK
  8
0
  6
BYBLOCK
 62
     0
  5
AF
  2
*D8
 70
     1
 10
0.0
 20
0.0
 30
0.0
  3
*D8
  0
LINE
  8
0
  6
CONTINUOUS
 62
    51
  5
B0
 10
15.057041
 20
0.55
 30
0.0
 11
15.057041
 21
-0.55
 31
0.0
  0
LINE
  8
0
  6
CONTINUOUS
 62
    51
  5
B1
 10
15.057041
 20
9.798395
 30
0.0
 11
15.057041
 21
0.55
 31
0.0
  0
LINE
  8
0
  6
CONTINUOUS
 62
    51
  5
B2
 10
8.675
 20
0.55
 30
0.0
 11
15.557041
 21
0.55
 31
0.0
  0
LINE
  8
0
  6
CONTINUOUS
 62
    51
  5
B3
 10
8.675
 20
-0.55
 30
0.0
 11
15.557041
 21
-0.55
 31
0.0
  0
LINE
  8
0
  6
CONTINUOUS
 62
    51
  5
B4
 10
15.057041
 20
0.55
 30
0.0
 11
15.057041
 21
1.82
 31
0.0
  0
LINE
  8
0
  6
CONTINUOUS
 62
    51
  5
B5
 10
15.057041
 20
-0.55
 30
0.0
 11
15.057041
 21
-1.82
 31
0.0
  0
INSERT
  8
0
  6
CONTINUOUS
 62
    51
  5
B6
  2
_OPEN
 10
15.057041
 20
0.55
 30
0.0
 41
0.45
 42
0.45
 50
270.0
 43
0.45
  0
INSERT
  8
0
  6
CONTINUOUS
 62
    51
  5
B7
  2
_OPEN
 10
15.057041
 20
-0.55
 30
0.0
 41
0.45
 42
0.45
 50
90.0
 43
0.45
  0
TEXT
  8
0
  6
CONTINUOUS
 62
    51
  5
B9
 10
14.857041
 20
2.214534
 30
0.0
 40
0.7
  1
1.10+/-0.03
 50
90.0
 41
0.995475
  7
MX_DIMTXSTY_3
 11
14.507041
 21
2.214534
 31
0.0
 73
     2
  0
POINT
  8
DEFPOINTS
  6
CONTINUOUS
 62
     0
  5
BA
 10
8.675
 20
0.55
 30
0.0
  0
POINT
  8
DEFPOINTS
  6
CONTINUOUS
 62
     0
  5
BB
 10
8.675
 20
-0.55
 30
0.0
  0
POINT
  8
DEFPOINTS
  6
CONTINUOUS
 62
     0
  5
BC
 10
15.057041
 20
-0.55
 30
0.0
  0
ENDBLK
  8
0
  6
BYBLOCK
 62
     0
  5
BD
  0
BLOCK
  8
0
  6
BYBLOCK
 62
     0
  5
C0
  2
*D9
 70
     1
 10
0.0
 20
0.0
 30
0.0
  3
*D9
  0
LINE
  8
0
  6
CONTINUOUS
 62
    51
  5
C1
 10
13.63116
 20
1.2
 30
0.0
 11
13.63116
 21
0.55
 31
0.0
  0
LINE
  8
0
  6
CONTINUOUS
 62
    51
  5
C2
 10
13.63116
 20
6.492889
 30
0.0
 11
13.63116
 21
1.2
 31
0.0
  0
LINE
  8
0
  6
CONTINUOUS
 62
    51
  5
C3
 10
8.675
 20
1.2
 30
0.0
 11
14.13116
 21
1.2
 31
0.0
  0
LINE
  8
0
  6
CONTINUOUS
 62
    51
  5
C4
 10
8.675
 20
0.55
 30
0.0
 11
14.13116
 21
0.55
 31
0.0
  0
LINE
  8
0
  6
CONTINUOUS
 62
    51
  5
C5
 10
13.63116
 20
1.2
 30
0.0
 11
13.63116
 21
2.47
 31
0.0
  0
LINE
  8
0
  6
CONTINUOUS
 62
    51
  5
C6
 10
13.63116
 20
0.55
 30
0.0
 11
13.63116
 21
-0.72
 31
0.0
  0
INSERT
  8
0
  6
CONTINUOUS
 62
    51
  5
C7
  2
_OPEN
 10
13.63116
 20
1.2
 30
0.0
 41
0.45
 42
0.45
 50
270.0
 43
0.45
  0
INSERT
  8
0
  6
CONTINUOUS
 62
    51
  5
C8
  2
_OPEN
 10
13.63116
 20
0.55
 30
0.0
 41
0.45
 42
0.45
 50
90.0
 43
0.45
  0
TEXT
  8
0
  6
CONTINUOUS
 62
    51
  5
CA
 10
13.43116
 20
2.684658
 30
0.0
 40
0.7
  1
(0.65)
 50
90.0
 41
0.987654
  7
MX_DIMTXSTY_4
 11
13.08116
 21
2.684658
 31
0.0
 73
     2
  0
POINT
  8
DEFPOINTS
  6
CONTINUOUS
 62
     0
  5
CB
 10
8.675
 20
1.2
 30
0.0
  0
POINT
  8
DEFPOINTS
  6
CONTINUOUS
 62
     0
  5
CC
 10
8.675
 20
0.55
 30
0.0
  0
POINT
  8
DEFPOINTS
  6
CONTINUOUS
 62
     0
  5
CD
 10
13.63116
 20
0.55
 30
0.0
  0
ENDBLK
  8
0
  6
BYBLOCK
 62
     0
  5
CE
  0
BLOCK
  8
0
  6
BYBLOCK
 62
     0
  5
D1
  2
*D10
 70
     1
 10
0.0
 20
0.0
 30
0.0
  3
*D10
  0
LINE
  8
0
  6
CONTINUOUS
 62
    51
  5
D2
 10
-13.4
 20
-0.83
 30
0.0
 11
-13.4
 21
0.83
 31
0.0
  0
LINE
  8
0
  6
CONTINUOUS
 62
    51
  5
D3
 10
-13.4
 20
0.83
 30
0.0
 11
-13.4
 21
8.843452
 31
0.0
  0
LINE
  8
0
  6
CONTINUOUS
 62
    51
  5
D4
 10
-9.5
 20
-0.83
 30
0.0
 11
-13.9
 21
-0.83
 31
0.0
  0
LINE
  8
0
  6
CONTINUOUS
 62
    51
  5
D5
 10
-9.5
 20
0.83
 30
0.0
 11
-13.9
 21
0.83
 31
0.0
  0
LINE
  8
0
  6
CONTINUOUS
 62
    51
  5
D6
 10
-13.4
 20
-0.83
 30
0.0
 11
-13.4
 21
-2.1
 31
0.0
  0
LINE
  8
0
  6
CONTINUOUS
 62
    51
  5
D7
 10
-13.4
 20
0.83
 30
0.0
 11
-13.4
 21
2.1
 31
0.0
  0
INSERT
  8
0
  6
CONTINUOUS
 62
    51
  5
D8
  2
_OPEN
 10
-13.4
 20
-0.83
 30
0.0
 41
0.45
 42
0.45
 50
90.0
 43
0.45
  0
INSERT
  8
0
  6
CONTINUOUS
 62
    51
  5
D9
  2
_OPEN
 10
-13.4
 20
0.83
 30
0.0
 41
0.45
 42
0.45
 50
270.0
 43
0.45
  0
TEXT
  8
0
  6
CONTINUOUS
 62
    51
  5
DA
 10
-13.6
 20
1.262278
 30
0.0
 40
0.7
  1
1.66+/-0.03
 50
90.0
 41
1.018519
  7
MX_DIMTXSTY_2
 11
-13.95
 21
1.262278
 31
0.0
 73
     2
  0
POINT
  8
DEFPOINTS
  6
CONTINUOUS
 62
     0
  5
DB
 10
-9.5
 20
-0.83
 30
0.0
  0
POINT
  8
DEFPOINTS
  6
CONTINUOUS
 62
     0
  5
DC
 10
-9.5
 20
0.83
 30
0.0
  0
POINT
  8
DEFPOINTS
  6
CONTINUOUS
 62
     0
  5
DD
 10
-13.4
 20
0.83
 30
0.0
  0
ENDBLK
  8
0
  6
BYBLOCK
 62
     0
  5
DE
  0
BLOCK
  8
0
  6
BYBLOCK
 62
     0
  5
E1
  2
*D11
 70
     1
 10
0.0
 20
0.0
 30
0.0
  3
*D11
  0
LINE
  8
0
  6
CONTINUOUS
 62
    51
  5
E2
 10
-11.9
 20
-0.3
 30
0.0
 11
-11.9
 21
0.3
 31
0.0
  0
LINE
  8
0
  6
CONTINUOUS
 62
    51
  5
E3
 10
-11.9
 20
0.3
 30
0.0
 11
-11.9
 21
8.843452
 31
0.0
  0
LINE
  8
0
  6
CONTINUOUS
 62
    51
  5
E4
 10
-9.05
 20
-0.3
 30
0.0
 11
-12.4
 21
-0.3
 31
0.0
  0
LINE
  8
0
  6
CONTINUOUS
 62
    51
  5
E5
 10
-9.05
 20
0.3
 30
0.0
 11
-12.4
 21
0.3
 31
0.0
  0
LINE
  8
0
  6
CONTINUOUS
 62
    51
  5
E6
 10
-11.9
 20
-0.3
 30
0.0
 11
-11.9
 21
-1.57
 31
0.0
  0
LINE
  8
0
  6
CONTINUOUS
 62
    51
  5
E7
 10
-11.9
 20
0.3
 30
0.0
 11
-11.9
 21
1.57
 31
0.0
  0
INSERT
  8
0
  6
CONTINUOUS
 62
    51
  5
E8
  2
_OPEN
 10
-11.9
 20
-0.3
 30
0.0
 41
0.45
 42
0.45
 50
90.0
 43
0.45
  0
INSERT
  8
0
  6
CONTINUOUS
 62
    51
  5
E9
  2
_OPEN
 10
-11.9
 20
0.3
 30
0.0
 41
0.45
 42
0.45
 50
270.0
 43
0.45
  0
TEXT
  8
0
  6
CONTINUOUS
 62
    51
  5
EA
 10
-12.1
 20
1.262278
 30
0.0
 40
0.7
  1
0.60+/-0.03
 50
90.0
 41
1.018519
  7
MX_DIMTXSTY_2
 11
-12.45
 21
1.262278
 31
0.0
 73
     2
  0
POINT
  8
DEFPOINTS
  6
CONTINUOUS
 62
     0
  5
EB
 10
-9.05
 20
-0.3
 30
0.0
  0
POINT
  8
DEFPOINTS
  6
CONTINUOUS
 62
     0
  5
EC
 10
-9.05
 20
0.3
 30
0.0
  0
POINT
  8
DEFPOINTS
  6
CONTINUOUS
 62
     0
  5
ED
 10
-11.9
 20
0.3
 30
0.0
  0
ENDBLK
  8
0
  6
BYBLOCK
 62
     0
  5
EE
  0
BLOCK
  8
0
  6
BYBLOCK
 62
     0
  5
F1
  2
*D12
 70
     1
 10
0.0
 20
0.0
 30
0.0
  3
*D12
  0
LINE
  8
0
  6
CONTINUOUS
 62
    51
  5
F2
 10
-8.675
 20
3.6
 30
0.0
 11
-8.475
 21
3.6
 31
0.0
  0
LINE
  8
0
  6
CONTINUOUS
 62
    51
  5
F3
 10
-8.475
 20
3.6
 30
0.0
 11
5.191344
 21
3.6
 31
0.0
  0
LINE
  8
0
  6
CONTINUOUS
 62
    51
  5
F4
 10
-8.675
 20
1.2
 30
0.0
 11
-8.675
 21
4.1
 31
0.0
  0
LINE
  8
0
  6
CONTINUOUS
 62
    51
  5
F5
 10
-8.475
 20
1.2
 30
0.0
 11
-8.475
 21
4.1
 31
0.0
  0
LINE
  8
0
  6
CONTINUOUS
 62
    51
  5
F6
 10
-8.675
 20
3.6
 30
0.0
 11
-9.945
 21
3.6
 31
0.0
  0
LINE
  8
0
  6
CONTINUOUS
 62
    51
  5
F7
 10
-8.475
 20
3.6
 30
0.0
 11
-7.205
 21
3.6
 31
0.0
  0
INSERT
  8
0
  6
CONTINUOUS
 62
    51
  5
F8
  2
_OPEN
 10
-8.675
 20
3.6
 30
0.0
 41
0.45
 42
0.45
 43
0.45
  0
INSERT
  8
0
  6
CONTINUOUS
 62
    51
  5
F9
  2
_OPEN
 10
-8.475
 20
3.6
 30
0.0
 41
0.45
 42
0.45
 50
180.0
 43
0.45
  0
TEXT
  8
0
  6
CONTINUOUS
 62
    51
  5
FA
 10
-2.389829
 20
3.8
 30
0.0
 40
0.7
  1
0.20+/-0.03
 41
1.018519
  7
MX_DIMTXSTY_2
 11
-2.389829
 21
4.15
 31
0.0
 73
     2
  0
POINT
  8
DEFPOINTS
  6
CONTINUOUS
 62
     0
  5
FB
 10
-8.675
 20
1.2
 30
0.0
  0
POINT
  8
DEFPOINTS
  6
CONTINUOUS
 62
     0
  5
FC
 10
-8.475
 20
1.2
 30
0.0
  0
POINT
  8
DEFPOINTS
  6
CONTINUOUS
 62
     0
  5
FD
 10
-8.475
 20
3.6
 30
0.0
  0
ENDBLK
  8
0
  6
BYBLOCK
 62
     0
  5
FE
  0
BLOCK
  8
0
  6
BYBLOCK
 62
     0
  5
101
  2
*D13
 70
     1
 10
0.0
 20
0.0
 30
0.0
  3
*D13
  0
LINE
  8
0
  6
CONTINUOUS
 62
    51
  5
102
 10
-8.575
 20
5.1
 30
0.0
 11
-8.225
 21
5.1
 31
0.0
  0
LINE
  8
0
  6
CONTINUOUS
 62
    51
  5
103
 10
-8.225
 20
5.1
 30
0.0
 11
5.191344
 21
5.1
 31
0.0
  0
LINE
  8
0
  6
CONTINUOUS
 62
    51
  5
104
 10
-8.575
 20
1.35
 30
0.0
 11
-8.575
 21
5.6
 31
0.0
  0
LINE
  8
0
  6
CONTINUOUS
 62
    51
  5
105
 10
-8.225
 20
1.35
 30
0.0
 11
-8.225
 21
5.6
 31
0.0
  0
LINE
  8
0
  6
CONTINUOUS
 62
    51
  5
106
 10
-8.575
 20
5.1
 30
0.0
 11
-9.845
 21
5.1
 31
0.0
  0
LINE
  8
0
  6
CONTINUOUS
 62
    51
  5
107
 10
-8.225
 20
5.1
 30
0.0
 11
-6.955
 21
5.1
 31
0.0
  0
INSERT
  8
0
  6
CONTINUOUS
 62
    51
  5
108
  2
_OPEN
 10
-8.575
 20
5.1
 30
0.0
 41
0.45
 42
0.45
 43
0.45
  0
INSERT
  8
0
  6
CONTINUOUS
 62
    51
  5
109
  2
_OPEN
 10
-8.225
 20
5.1
 30
0.0
 41
0.45
 42
0.45
 50
180.0
 43
0.45
  0
TEXT
  8
0
  6
CONTINUOUS
 62
    51
  5
10A
 10
-2.39199
 20
5.3
 30
0.0
 40
0.7
  1
0.35+/-0.03
  7
MX_DIMTXSTY_2
 11
-2.39199
 21
5.65
 31
0.0
 73
     2
  0
POINT
  8
DEFPOINTS
  6
CONTINUOUS
 62
     0
  5
10B
 10
-8.575
 20
1.35
 30
0.0
  0
POINT
  8
DEFPOINTS
  6
CONTINUOUS
 62
     0
  5
10C
 10
-8.225
 20
1.35
 30
0.0
  0
POINT
  8
DEFPOINTS
  6
CONTINUOUS
 62
     0
  5
10D
 10
-8.225
 20
5.1
 30
0.0
  0
ENDBLK
  8
0
  6
BYBLOCK
 62
     0
  5
10E
  0
ENDSEC
  0
SECTION
  2
ENTITIES
  0
TEXT
  8
LY_1
  6
CONTINUOUS
 62
   230
  5
4B
 10
-14.655082
 20
-12.578824
 30
0.0
 40
0.5
  1
Oct. 2015  axf6a0012-pad.dxf  (C)Panasonic Corporation 2015
 41
1.152344
  7
MX_NOTE_STANDARD
 11
-14.655082
 21
-12.328824
 31
0.0
 73
     2
  0
DIMENSION
  8
LY_1
  6
CONTINUOUS
 62
    51
  5
5F
  2
*D3
 10
-9.275
 20
-5.1
 30
0.0
 11
0.0
 21
-5.1
 31
0.0
 70
   128
  1
<>+/-0.05
 13
9.275
 23
-0.98
 33
0.0
 14
-9.275
 24
-0.98
 34
0.0
  3
MXDIMSTYLE
1001
ACAD
1000
DSTYLE
1002
{
1070
     6
1000
_OPEN
1070
     7
1000
_OPEN
1070
    41
1040
0.45
1070
    44
1040
0.5
1070
   140
1040
0.7
1070
   284
1070
     8
1070
   340
1005
59
1070
   343
1005
51
1070
   344
1005
51
1002
}
  0
DIMENSION
  8
LY_1
  6
CONTINUOUS
 62
    51
  5
6C
  2
*D5
 10
8.575
 20
6.638006
 30
0.0
 11
0.0
 21
6.638006
 31
0.0
 70
   128
  1
<>+/-0.05
 13
-8.575
 23
0.45
 33
0.0
 14
8.575
 24
0.45
 34
0.0
  3
MXDIMSTYLE
1001
ACAD
1000
DSTYLE
1002
{
1070
     6
1000
_OPEN
1070
     7
1000
_OPEN
1070
    41
1040
0.45
1070
    44
1040
0.5
1070
   140
1040
0.7
1070
   284
1070
     8
1070
   340
1005
59
1070
   343
1005
51
1070
   344
1005
51
1002
}
  0
INSERT
  8
LY_1
  6
BYBLOCK
 62
    52
  5
6D
  2
MS_1
 10
8.575
 20
0.0
 30
0.0
 42
-1.0
 50
180.0
  0
INSERT
  8
LY_1
  6
BYBLOCK
 62
    52
  5
6E
  2
MS_1
 10
8.225
 20
0.0
 30
0.0
 42
-1.0
 50
180.0
  0
INSERT
  8
LY_1
  6
BYBLOCK
 62
    52
  5
6F
  2
MS_1
 10
7.875
 20
0.0
 30
0.0
 42
-1.0
 50
180.0
  0
INSERT
  8
LY_1
  6
BYBLOCK
 62
    52
  5
70
  2
MS_1
 10
7.525
 20
0.0
 30
0.0
 42
-1.0
 50
180.0
  0
INSERT
  8
LY_1
  6
BYBLOCK
 62
    52
  5
71
  2
MS_1
 10
7.175
 20
0.0
 30
0.0
 42
-1.0
 50
180.0
  0
INSERT
  8
LY_1
  6
BYBLOCK
 62
    52
  5
72
  2
MS_1
 10
6.825
 20
0.0
 30
0.0
 42
-1.0
 50
180.0
  0
INSERT
  8
LY_1
  6
BYBLOCK
 62
    52
  5
73
  2
MS_1
 10
6.475
 20
0.0
 30
0.0
 42
-1.0
 50
180.0
  0
INSERT
  8
LY_1
  6
BYBLOCK
 62
    52
  5
74
  2
MS_1
 10
6.125
 20
0.0
 30
0.0
 42
-1.0
 50
180.0
  0
INSERT
  8
LY_1
  6
BYBLOCK
 62
    52
  5
75
  2
MS_1
 10
5.775
 20
0.0
 30
0.0
 42
-1.0
 50
180.0
  0
INSERT
  8
LY_1
  6
BYBLOCK
 62
    52
  5
76
  2
MS_1
 10
5.425
 20
0.0
 30
0.0
 42
-1.0
 50
180.0
  0
INSERT
  8
LY_1
  6
BYBLOCK
 62
    52
  5
77
  2
MS_1
 10
5.075
 20
0.0
 30
0.0
 42
-1.0
 50
180.0
  0
INSERT
  8
LY_1
  6
BYBLOCK
 62
    52
  5
78
  2
MS_1
 10
4.725
 20
0.0
 30
0.0
 42
-1.0
 50
180.0
  0
INSERT
  8
LY_1
  6
BYBLOCK
 62
    52
  5
79
  2
MS_1
 10
4.375
 20
0.0
 30
0.0
 42
-1.0
 50
180.0
  0
INSERT
  8
LY_1
  6
BYBLOCK
 62
    52
  5
7A
  2
MS_1
 10
4.025
 20
0.0
 30
0.0
 42
-1.0
 50
180.0
  0
INSERT
  8
LY_1
  6
BYBLOCK
 62
    52
  5
7B
  2
MS_1
 10
3.675
 20
0.0
 30
0.0
 42
-1.0
 50
180.0
  0
INSERT
  8
LY_1
  6
BYBLOCK
 62
    52
  5
7C
  2
MS_1
 10
3.325
 20
0.0
 30
0.0
 42
-1.0
 50
180.0
  0
INSERT
  8
LY_1
  6
BYBLOCK
 62
    52
  5
7D
  2
MS_1
 10
2.975
 20
0.0
 30
0.0
 42
-1.0
 50
180.0
  0
INSERT
  8
LY_1
  6
BYBLOCK
 62
    52
  5
7E
  2
MS_1
 10
-8.575
 20
0.0
 30
0.0
  0
INSERT
  8
LY_1
  6
BYBLOCK
 62
    52
  5
7F
  2
MS_1
 10
-8.225
 20
0.0
 30
0.0
  0
INSERT
  8
LY_1
  6
BYBLOCK
 62
    52
  5
80
  2
MS_1
 10
-7.875
 20
0.0
 30
0.0
  0
INSERT
  8
LY_1
  6
BYBLOCK
 62
    52
  5
81
  2
MS_1
 10
-7.525
 20
0.0
 30
0.0
  0
INSERT
  8
LY_1
  6
BYBLOCK
 62
    52
  5
82
  2
MS_1
 10
-7.175
 20
0.0
 30
0.0
  0
INSERT
  8
LY_1
  6
BYBLOCK
 62
    52
  5
83
  2
MS_1
 10
-6.825
 20
0.0
 30
0.0
  0
INSERT
  8
LY_1
  6
BYBLOCK
 62
    52
  5
84
  2
MS_1
 10
-6.475
 20
0.0
 30
0.0
  0
INSERT
  8
LY_1
  6
BYBLOCK
 62
    52
  5
85
  2
MS_1
 10
-6.125
 20
0.0
 30
0.0
  0
INSERT
  8
LY_1
  6
BYBLOCK
 62
    52
  5
86
  2
MS_1
 10
-5.775
 20
0.0
 30
0.0
  0
INSERT
  8
LY_1
  6
BYBLOCK
 62
    52
  5
87
  2
MS_1
 10
-5.425
 20
0.0
 30
0.0
  0
INSERT
  8
LY_1
  6
BYBLOCK
 62
    52
  5
88
  2
MS_1
 10
-5.075
 20
0.0
 30
0.0
  0
INSERT
  8
LY_1
  6
BYBLOCK
 62
    52
  5
89
  2
MS_1
 10
-4.725
 20
0.0
 30
0.0
  0
INSERT
  8
LY_1
  6
BYBLOCK
 62
    52
  5
8A
  2
MS_1
 10
-4.375
 20
0.0
 30
0.0
  0
INSERT
  8
LY_1
  6
BYBLOCK
 62
    52
  5
8B
  2
MS_1
 10
-4.025
 20
0.0
 30
0.0
  0
INSERT
  8
LY_1
  6
BYBLOCK
 62
    52
  5
8C
  2
MS_1
 10
-3.675
 20
0.0
 30
0.0
  0
INSERT
  8
LY_1
  6
BYBLOCK
 62
    52
  5
8D
  2
MS_1
 10
-3.325
 20
0.0
 30
0.0
  0
DIMENSION
  8
LY_1
  6
CONTINUOUS
 62
    51
  5
9D
  2
*D6
 10
-9.5
 20
-3.6
 30
0.0
 11
1.981168
 21
-3.6
 31
0.0
 70
   128
  1
<>+/-0.03
 13
-9.05
 23
-0.83
 33
0.0
 14
-9.5
 24
-0.83
 34
0.0
  3
MXDIMSTYLE
1001
ACAD
1000
DSTYLE
1002
{
1070
     6
1000
_OPEN
1070
     7
1000
_OPEN
1070
    41
1040
0.45
1070
    44
1040
0.5
1070
   140
1040
0.7
1070
   284
1070
     8
1070
   340
1005
59
1070
   343
1005
51
1070
   344
1005
51
1002
}
  0
DIMENSION
  8
LY_1
  6
CONTINUOUS
 62
    51
  5
AD
  2
*D7
 10
16.52613
 20
-1.2
 30
0.0
 11
16.52613
 21
6.034812
 31
0.0
 70
   128
  1
<>+/-0.03
 13
8.675
 23
1.2
 33
0.0
 14
8.675
 24
-1.2
 34
0.0
 50
90.0
  3
MXDIMSTYLE
1001
ACAD
1000
DSTYLE
1002
{
1070
     6
1000
_OPEN
1070
     7
1000
_OPEN
1070
    41
1040
0.45
1070
    44
1040
0.5
1070
    78
1070
     0
1070
   140
1040
0.7
1070
   340
1005
59
1070
   343
1005
51
1070
   344
1005
51
1002
}
  0
DIMENSION
  8
LY_1
  6
CONTINUOUS
 62
    51
  5
BE
  2
*D8
 10
15.057041
 20
-0.55
 30
0.0
 11
15.057041
 21
5.948395
 31
0.0
 70
   128
  1
<>+/-0.03
 13
8.675
 23
0.55
 33
0.0
 14
8.675
 24
-0.55
 34
0.0
 50
90.0
  3
MXDIMSTYLE
1001
ACAD
1000
DSTYLE
1002
{
1070
     6
1000
_OPEN
1070
     7
1000
_OPEN
1070
    41
1040
0.45
1070
    44
1040
0.5
1070
    78
1070
     0
1070
   140
1040
0.7
1070
   340
1005
B8
1070
   343
1005
51
1070
   344
1005
51
1002
}
  0
DIMENSION
  8
LY_1
  6
CONTINUOUS
 62
    51
  5
CF
  2
*D9
 10
13.63116
 20
0.55
 30
0.0
 11
13.63116
 21
4.392889
 31
0.0
 70
   128
  1
(<>)
 13
8.675
 23
1.2
 33
0.0
 14
8.675
 24
0.55
 34
0.0
 50
90.0
  3
MXDIMSTYLE
1001
ACAD
1000
DSTYLE
1002
{
1070
     6
1000
_OPEN
1070
     7
1000
_OPEN
1070
    41
1040
0.45
1070
    44
1040
0.5
1070
   140
1040
0.7
1070
   284
1070
     8
1070
   340
1005
C9
1070
   343
1005
51
1070
   344
1005
51
1002
}
  0
DIMENSION
  8
LY_1
  6
CONTINUOUS
 62
    51
  5
DF
  2
*D10
 10
-13.4
 20
0.83
 30
0.0
 11
-13.4
 21
4.993452
 31
0.0
 70
   128
  1
<>+/-0.03
 13
-9.5
 23
-0.83
 33
0.0
 14
-9.5
 24
0.83
 34
0.0
 50
90.0
  3
MXDIMSTYLE
1001
ACAD
1000
DSTYLE
1002
{
1070
     6
1000
_OPEN
1070
     7
1000
_OPEN
1070
    41
1040
0.45
1070
    44
1040
0.5
1070
   140
1040
0.7
1070
   284
1070
     8
1070
   340
1005
59
1070
   343
1005
51
1070
   344
1005
51
1002
}
  0
DIMENSION
  8
LY_1
  6
CONTINUOUS
 62
    51
  5
EF
  2
*D11
 10
-11.9
 20
0.3
 30
0.0
 11
-11.9
 21
4.993451
 31
0.0
 70
   128
  1
<>+/-0.03
 13
-9.05
 23
-0.3
 33
0.0
 14
-9.05
 24
0.3
 34
0.0
 50
90.0
  3
MXDIMSTYLE
1001
ACAD
1000
DSTYLE
1002
{
1070
     6
1000
_OPEN
1070
     7
1000
_OPEN
1070
    41
1040
0.45
1070
    44
1040
0.5
1070
    78
1070
     0
1070
   140
1040
0.7
1070
   340
1005
59
1070
   343
1005
51
1070
   344
1005
51
1002
}
  0
DIMENSION
  8
LY_1
  6
CONTINUOUS
 62
    51
  5
FF
  2
*D12
 10
-8.475
 20
3.6
 30
0.0
 11
1.341344
 21
3.6
 31
0.0
 70
   128
  1
<>+/-0.03
 13
-8.675
 23
1.2
 33
0.0
 14
-8.475
 24
1.2
 34
0.0
  3
MXDIMSTYLE
1001
ACAD
1000
DSTYLE
1002
{
1070
     6
1000
_OPEN
1070
     7
1000
_OPEN
1070
    41
1040
0.45
1070
    44
1040
0.5
1070
    78
1070
     0
1070
   140
1040
0.7
1070
   340
1005
59
1070
   343
1005
51
1070
   344
1005
51
1002
}
  0
DIMENSION
  8
LY_1
  6
CONTINUOUS
 62
    51
  5
10F
  2
*D13
 10
-8.225
 20
5.1
 30
0.0
 11
1.341344
 21
5.1
 31
0.0
 70
   128
  1
<>+/-0.03
 13
-8.575
 23
1.35
 33
0.0
 14
-8.225
 24
1.35
 34
0.0
  3
MXDIMSTYLE
1001
ACAD
1000
DSTYLE
1002
{
1070
     6
1000
_OPEN
1070
     7
1000
_OPEN
1070
    41
1040
0.45
1070
    44
1040
0.5
1070
   140
1040
0.7
1070
   284
1070
     8
1070
   340
1005
59
1070
   343
1005
51
1070
   344
1005
51
1002
}
  0
LINE
  8
LY_1
  6
CENTER
 62
    52
  5
111
 10
9.275
 20
-0.98
 30
0.0
 11
9.275
 21
-0.15
 31
0.0
  0
LINE
  8
LY_1
  6
CENTER
 62
    52
  5
112
 10
9.275
 20
0.98
 30
0.0
 11
9.275
 21
0.15
 31
0.0
  0
LINE
  8
LY_1
  6
CENTER
 62
    52
  5
113
 10
-9.275
 20
-0.98
 30
0.0
 11
-9.275
 21
-0.15
 31
0.0
  0
LINE
  8
LY_1
  6
CENTER
 62
    52
  5
114
 10
8.575
 20
-0.45
 30
0.0
 11
8.575
 21
-1.35
 31
0.0
  0
LINE
  8
LY_1
  6
CENTER
 62
    52
  5
115
 10
-8.225
 20
-0.45
 30
0.0
 11
-8.225
 21
-1.35
 31
0.0
  0
LINE
  8
LY_1
  6
CENTER
 62
    52
  5
116
 10
-8.575
 20
-0.45
 30
0.0
 11
-8.575
 21
-1.35
 31
0.0
  0
INSERT
  8
LY_1
  6
BYBLOCK
 62
    52
  5
117
  2
MS_1
 10
2.275
 20
0.0
 30
0.0
 42
-1.0
 50
180.0
  0
INSERT
  8
LY_1
  6
BYBLOCK
 62
    52
  5
118
  2
MS_2
 10
9.275
 20
0.0
 30
0.0
 42
-1.0
 50
180.0
  0
INSERT
  8
LY_1
  6
BYBLOCK
 62
    52
  5
119
  2
MS_1
 10
2.625
 20
0.0
 30
0.0
 42
-1.0
 50
180.0
  0
LINE
  8
LY_1
  6
CENTER
 62
    52
  5
11A
 10
8.575
 20
0.45
 30
0.0
 11
8.575
 21
1.35
 31
0.0
  0
INSERT
  8
LY_1
  6
BYBLOCK
 62
    52
  5
11B
  2
MS_1
 10
1.925
 20
0.0
 30
0.0
 42
-1.0
 50
180.0
  0
INSERT
  8
LY_1
  6
BYBLOCK
 62
    52
  5
11C
  2
MS_1
 10
1.575
 20
0.0
 30
0.0
 42
-1.0
 50
180.0
  0
INSERT
  8
LY_1
  6
BYBLOCK
 62
    52
  5
11D
  2
MS_1
 10
1.225
 20
0.0
 30
0.0
 42
-1.0
 50
180.0
  0
INSERT
  8
LY_1
  6
BYBLOCK
 62
    52
  5
11E
  2
MS_1
 10
0.875
 20
0.0
 30
0.0
 42
-1.0
 50
180.0
  0
INSERT
  8
LY_1
  6
BYBLOCK
 62
    52
  5
11F
  2
MS_1
 10
0.525
 20
0.0
 30
0.0
 42
-1.0
 50
180.0
  0
INSERT
  8
LY_1
  6
BYBLOCK
 62
    52
  5
120
  2
MS_1
 10
0.175
 20
0.0
 30
0.0
 42
-1.0
 50
180.0
  0
INSERT
  8
LY_1
  6
BYBLOCK
 62
    52
  5
121
  2
MS_1
 10
-0.175
 20
0.0
 30
0.0
 42
-1.0
 50
180.0
  0
INSERT
  8
LY_1
  6
BYBLOCK
 62
    52
  5
122
  2
MS_1
 10
-0.525
 20
0.0
 30
0.0
 42
-1.0
 50
180.0
  0
INSERT
  8
LY_1
  6
BYBLOCK
 62
    52
  5
123
  2
MS_1
 10
-0.875
 20
0.0
 30
0.0
 42
-1.0
 50
180.0
  0
INSERT
  8
LY_1
  6
BYBLOCK
 62
    52
  5
124
  2
MS_1
 10
-1.225
 20
0.0
 30
0.0
 42
-1.0
 50
180.0
  0
INSERT
  8
LY_1
  6
BYBLOCK
 62
    52
  5
125
  2
MS_1
 10
-1.575
 20
0.0
 30
0.0
  0
INSERT
  8
LY_1
  6
BYBLOCK
 62
    52
  5
126
  2
MS_1
 10
-1.925
 20
0.0
 30
0.0
  0
INSERT
  8
LY_1
  6
BYBLOCK
 62
    52
  5
127
  2
MS_1
 10
-2.275
 20
0.0
 30
0.0
  0
LINE
  8
LY_1
  6
CENTER
 62
    52
  5
128
 10
-8.225
 20
0.45
 30
0.0
 11
-8.225
 21
1.35
 31
0.0
  0
LINE
  8
LY_1
  6
CENTER
 62
    52
  5
129
 10
-8.575
 20
0.45
 30
0.0
 11
-8.575
 21
1.35
 31
0.0
  0
INSERT
  8
LY_1
  6
BYBLOCK
 62
    52
  5
12A
  2
MS_1
 10
-2.975
 20
0.0
 30
0.0
  0
INSERT
  8
LY_1
  6
BYBLOCK
 62
    52
  5
12B
  2
MS_2
 10
-9.275
 20
0.0
 30
0.0
  0
INSERT
  8
LY_1
  6
BYBLOCK
 62
    52
  5
12C
  2
MS_1
 10
-2.625
 20
0.0
 30
0.0
  0
LINE
  8
LY_1
  6
CENTER
 62
    52
  5
12D
 10
-9.275
 20
0.98
 30
0.0
 11
-9.275
 21
0.15
 31
0.0
  0
LINE
  8
LY_1
  6
CENTER
 62
    52
  5
12E
 10
-9.689228
 20
0.0
 30
0.0
 11
9.5
 21
0.0
 31
0.0
  0
LINE
  8
LY_1
  6
CENTER
 62
    52
  5
12F
 10
0.0
 20
1.35
 30
0.0
 11
0.0
 21
-1.3
 31
0.0
  0
LINE
  8
LY_1
  6
CONTINUOUS
 62
    52
  5
130
 10
-16.5
 20
13.448653
 30
0.0
 11
16.5
 21
13.448653
 31
0.0
  0
TEXT
  8
LY_1
  6
CONTINUOUS
 62
   230
  5
131
 10
-4.258379
 20
13.802992
 30
0.0
 40
0.8
  1
(Top view)
 41
1.209677
  7
MX_NOTE_STANDARD
 11
-4.258379
 21
14.202992
 31
0.0
 73
     2
  0
TEXT
  8
LY_1
  6
CONTINUOUS
 62
   230
  5
132
 10
-15.817749
 20
14.995917
 30
0.0
 40
0.8
  1
Recommended mounting pattern on PC board
 41
1.071429
  7
MX_NOTE_STANDARD
 11
-15.817749
 21
15.395917
 31
0.0
 73
     2
  0
ENDSEC
  0
EOF
